<?xml version="1.0" standalone="no"?>
<!DOCTYPE svg PUBLIC "-//W3C//DTD SVG 1.1//EN" "http://www.w3.org/Graphics/SVG/1.1/DTD/svg11.dtd" >
<svg>
<metadata>
Created by FontForge 20110222 at Sat Aug  2 01:44:37 2014
 By Orthosie Webhosting
Copyright (c) 1991 Digital Typeface Corp.
</metadata>
<defs>
<font id="VAGRoundRegular" horiz-adv-x="2171" >
  <font-face 
    font-family="VAGRoundRegular"
    font-weight="400"
    font-stretch="normal"
    units-per-em="4096"
    panose-1="4 11 114 0 0 0 0 0 0 0"
    ascent="3276"
    descent="-820"
    x-height="2077"
    cap-height="2773"
    bbox="-319 -872 4723 3686"
    underline-thickness="95"
    underline-position="-54"
    unicode-range="U+0008-FB02"
  />
<missing-glyph horiz-adv-x="3072" 
d="M512 0v2560h2048v-2560h-2048zM2494 66v2428h-1916v-2428h1916z" />
    <glyph glyph-name=".notdef" unicode="&#x394;" horiz-adv-x="3072" 
d="M512 0v2560h2048v-2560h-2048zM2494 66v2428h-1916v-2428h1916z" />
    <glyph glyph-name=".notdef" unicode="&#xf8ff;" horiz-adv-x="3072" 
d="M512 0v2560h2048v-2560h-2048zM2494 66v2428h-1916v-2428h1916z" />
    <glyph glyph-name=".notdef" unicode="&#xe01e;" horiz-adv-x="3072" 
d="M512 0v2560h2048v-2560h-2048zM2494 66v2428h-1916v-2428h1916z" />
    <glyph glyph-name=".notdef" unicode="&#x25ca;" horiz-adv-x="3072" 
d="M512 0v2560h2048v-2560h-2048zM2494 66v2428h-1916v-2428h1916z" />
    <glyph glyph-name=".notdef" unicode="&#x2260;" horiz-adv-x="3072" 
d="M512 0v2560h2048v-2560h-2048zM2494 66v2428h-1916v-2428h1916z" />
    <glyph glyph-name=".notdef" unicode="&#x2248;" horiz-adv-x="3072" 
d="M512 0v2560h2048v-2560h-2048zM2494 66v2428h-1916v-2428h1916z" />
    <glyph glyph-name=".notdef" unicode="&#x222b;" horiz-adv-x="3072" 
d="M512 0v2560h2048v-2560h-2048zM2494 66v2428h-1916v-2428h1916z" />
    <glyph glyph-name=".notdef" unicode="&#x221e;" horiz-adv-x="3072" 
d="M512 0v2560h2048v-2560h-2048zM2494 66v2428h-1916v-2428h1916z" />
    <glyph glyph-name=".notdef" unicode="&#x221a;" horiz-adv-x="3072" 
d="M512 0v2560h2048v-2560h-2048zM2494 66v2428h-1916v-2428h1916z" />
    <glyph glyph-name=".notdef" unicode="&#x2211;" horiz-adv-x="3072" 
d="M512 0v2560h2048v-2560h-2048zM2494 66v2428h-1916v-2428h1916z" />
    <glyph glyph-name=".notdef" unicode="&#x220f;" horiz-adv-x="3072" 
d="M512 0v2560h2048v-2560h-2048zM2494 66v2428h-1916v-2428h1916z" />
    <glyph glyph-name=".notdef" unicode="&#x2202;" horiz-adv-x="3072" 
d="M512 0v2560h2048v-2560h-2048zM2494 66v2428h-1916v-2428h1916z" />
    <glyph glyph-name=".notdef" unicode="&#x3c0;" horiz-adv-x="3072" 
d="M512 0v2560h2048v-2560h-2048zM2494 66v2428h-1916v-2428h1916z" />
    <glyph glyph-name=".notdef" unicode="&#x3a9;" horiz-adv-x="3072" 
d="M512 0v2560h2048v-2560h-2048zM2494 66v2428h-1916v-2428h1916z" />
    <glyph glyph-name=".null" horiz-adv-x="0" 
 />
    <glyph glyph-name=".null" horiz-adv-x="0" 
 />
    <glyph glyph-name=".null" horiz-adv-x="0" 
 />
    <glyph glyph-name="nonmarkingreturn" unicode="&#x9;" horiz-adv-x="0" 
 />
    <glyph glyph-name="nonmarkingreturn" unicode="&#xd;" horiz-adv-x="0" 
 />
    <glyph glyph-name="space" unicode=" " horiz-adv-x="1151" 
 />
    <glyph glyph-name="exclam" unicode="!" horiz-adv-x="1176" 
d="M254 266q0 135 99.5 233.5t236.5 98.5q87 0 164 -45.5t122.5 -122.5t45.5 -164q0 -137 -98.5 -236.5t-233.5 -99.5q-138 0 -237 99t-99 237zM913 2466v-1323q0 -144 -78.5 -238t-220.5 -94q-139 0 -219 95.5t-80 236.5v1323q0 141 79 236.5t220 95.5q139 0 219 -95
t80 -237z" />
    <glyph glyph-name="quotedbl" unicode="&#x22;" horiz-adv-x="1937" 
d="M295 1868l467 807q73 123 192 123q64 -3 118 -49t54 -119q-14 -80 -57 -127l-598 -738q-69 -98 -127 -110q-91 0 -102 57q0 66 53 156zM950 1868l467 807q73 123 193 123q64 -3 118 -49t54 -119q-14 -78 -58 -127l-598 -738q-67 -98 -127 -110q-91 0 -102 57q0 63 53 156
z" />
    <glyph glyph-name="numbersign" unicode="#" horiz-adv-x="2306" 
d="M1122 1851h463l156 385q32 87 110 99q56 0 102.5 -32t49.5 -83q0 -44 -12 -82l-115 -287h229q62 0 105 -35t43 -96q0 -63 -43 -99t-105 -36h-344l-184 -455h246q62 0 102.5 -33.5t40.5 -92.5q0 -60 -41.5 -96t-101.5 -36h-348l-160 -393q-35 -87 -107 -98
q-56 0 -102 31.5t-49 83.5q0 44 12 82l119 294h-455l-147 -364q-46 -114 -123 -127q-57 0 -103.5 31t-52.5 84q0 31 17 86l114 290h-237q-57 0 -100.5 37t-43.5 95q0 57 42 91.5t102 34.5h352l184 455h-245q-62 0 -105 36.5t-43 98.5q0 59 43 95t105 36h348l159 385
q34 88 111 99q54 0 99 -32.5t48 -82.5q0 -32 -16 -82zM1020 1585l-184 -455h458l185 455h-459z" />
    <glyph glyph-name="dollar" unicode="$" horiz-adv-x="2306" 
d="M1331 2769q578 -93 578 -381q0 -123 -88 -209t-211 -86q-38 0 -74.5 8t-94.5 26.5t-85 26.5q-121 41 -221 41q-108 0 -201 -57.5t-103 -159.5q0 -95 67.5 -143t178.5 -78q191 -53 344 -110q215 -73 360 -170.5t224.5 -247t79.5 -369.5q0 -343 -205 -577
q-182 -209 -549 -295v-262q0 -94 -52 -158t-144 -64t-146.5 65t-54.5 157v237q-244 19 -447 94q-315 121 -315 336q0 115 75.5 211t186.5 96q83 0 139 -20l218 -74q191 -57 299 -57q140 0 244 74t104 208q0 131 -131 201q-92 48 -377 131q-221 62 -332.5 105.5t-208.5 136.5
q-102 98 -157.5 231.5t-55.5 272.5q0 113 29 223.5t85.5 207.5t139.5 179q188 177 504 246v237q0 92 54.5 157t146.5 65q88 0 142 -64.5t54 -157.5v-233z" />
    <glyph glyph-name="percent" unicode="%" horiz-adv-x="3400" 
d="M127 1909q0 346 131 581q76 137 209.5 226.5t282.5 89.5q220 0 366.5 -134.5t213.5 -338.5t67 -420q0 -218 -67 -421.5t-214 -337.5t-366 -134q-148 0 -281.5 88t-210.5 223q-131 235 -131 578zM762 1405q149 0 189 153t40 359t-40 359t-189 153q-148 0 -189 -156.5
t-41 -367.5q0 -199 42 -349.5t188 -150.5zM2011 872q0 347 131 582q79 139 211 225t281 86q219 0 366 -134t214 -337.5t67 -421.5q0 -215 -67 -418t-214 -336.5t-366 -133.5q-148 0 -281 86.5t-211 224.5q-131 235 -131 577zM2646 365q149 0 189 153t40 359q0 207 -40 361.5
t-189 154.5t-189 -157t-40 -368q0 -503 229 -503zM1053 254l954 2404q61 129 164 140q93 0 154 -45t67 -119q0 -57 -20 -119l-975 -2445q-49 -126 -160 -144q-89 0 -152 48t-69 120q0 67 37 160z" />
    <glyph glyph-name="ampersand" unicode="&#x26;" horiz-adv-x="2863" 
d="M1589 1495l393 -422l226 242q78 84 180 90q106 0 185 -72.5t85 -173.5q0 -140 -94 -246l-205 -225l172 -176q122 -128 144 -201q8 -24 8 -69q0 -96 -62.5 -177t-154.5 -106q-42 -8 -66 -8q-134 0 -237 110l-230 238q-162 -140 -291 -209q-293 -160 -577 -160
q-254 0 -469 103t-342 296.5t-127 448.5q0 460 573 844q-241 271 -241 553q0 200 127 341.5t321 211.5t387 70q391 0 619 -189q93 -74 149 -187.5t56 -230.5q0 -239 -145 -414t-384 -282zM1274 1823q124 62 197 130.5t73 180.5q-9 84 -77.5 134t-155.5 50q-85 0 -150 -50.5
t-71 -133.5q0 -101 69 -176zM1024 1257q-144 -100 -221.5 -195.5t-77.5 -230.5q0 -102 54.5 -183t143.5 -125t191 -44q114 0 220 56t235 153z" />
    <glyph glyph-name="quotesingle" unicode="'" horiz-adv-x="1389" 
d="M311 1868l467 807q73 123 193 123q64 -3 118 -49t54 -119q-14 -78 -58 -127l-598 -738q-67 -98 -127 -110q-91 0 -102 57q0 63 53 156z" />
    <glyph glyph-name="parenleft" unicode="(" horiz-adv-x="1077" 
d="M164 1143q0 278 36 545t111 524q123 422 226 520q50 57 151 66q101 0 185.5 -65.5t84.5 -164.5q-5 -58 -32 -127q-234 -617 -234 -1315t234 -1314q32 -82 32 -127q0 -99 -84.5 -164.5t-185.5 -65.5q-160 9 -254 238q-60 134 -119 348q-151 489 -151 1102z" />
    <glyph glyph-name="parenright" unicode=")" horiz-adv-x="1077" 
d="M922 1143q0 -610 -148 -1102q-121 -416 -225 -520q-53 -59 -152 -66q-101 0 -185.5 65.5t-84.5 164.5q0 47 33 127q233 617 233 1314t-233 1315q-33 80 -33 127q0 99 84.5 164.5t185.5 65.5q160 -10 254 -238q61 -137 119 -348q152 -494 152 -1069z" />
    <glyph glyph-name="asterisk" unicode="*" horiz-adv-x="1704" 
d="M1024 2363l143 136q46 45 119 45q87 -6 145 -72t64 -154q0 -123 -106 -168l-201 -77l176 -66q139 -49 139 -176q0 -90 -60 -157.5t-149 -67.5q-67 0 -106 32l-164 136l25 -181q4 -20 4 -53q0 -91 -56 -148t-145 -57t-147 58t-58 147q0 33 4 53l29 181l-168 -136
q-39 -32 -106 -32q-89 0 -149 68.5t-60 156.5q0 127 139 176l176 66l-201 77q-102 43 -102 168q0 83 61 151.5t144 74.5q71 0 123 -45l143 -136l-21 193q-4 24 -4 78q0 75 57.5 119.5t139.5 44.5q79 0 138 -44.5t59 -119.5q0 -24 -9 -78z" />
    <glyph glyph-name="plus" unicode="+" 
d="M94 1626h828v819h319v-819h832v-303h-832v-823h-319v823h-828v303z" />
    <glyph glyph-name="comma" unicode="," horiz-adv-x="1217" 
d="M160 -176l368 639q82 135 234 135q113 0 204 -80.5t91 -193.5q0 -66 -33 -140l-360 -639q-79 -143 -242 -143q-121 0 -210 86.5t-89 208.5q6 66 37 127z" />
    <glyph glyph-name="hyphen" unicode="-" horiz-adv-x="1405" 
d="M483 1384h439q124 0 205 -66.5t81 -187.5q0 -118 -82.5 -188t-203.5 -70h-439q-121 0 -203.5 69t-82.5 189q0 119 82 186.5t204 67.5z" />
    <glyph glyph-name="period" unicode="." horiz-adv-x="1217" 
d="M274 266q0 135 99.5 233.5t236.5 98.5q88 0 164.5 -45t122 -122.5t45.5 -164.5q0 -137 -97.5 -236.5t-234.5 -99.5q-138 0 -237 99t-99 237z" />
    <glyph glyph-name="slash" unicode="/" horiz-adv-x="1954" 
d="M1765 2507l-1192 -2876q-71 -192 -184 -192q-79 0 -145 46t-72 118q0 57 45 176l1192 2879q51 144 164 144q80 0 145 -46.5t68 -121.5q0 -76 -21 -127z" />
    <glyph glyph-name="zero" unicode="0" horiz-adv-x="2306" 
d="M1130 2798q346 0 590 -226l74 111q73 115 168 115q71 0 136 -61.5t65 -135.5q0 -36 -49 -127l-148 -229q197 -395 197 -881q0 -248 -60 -500.5t-185 -463.5t-324.5 -340.5t-463.5 -129.5q-283 0 -540 209l-37 -61q-42 -70 -85 -109t-112 -39q-80 0 -146.5 57.5
t-66.5 135.5q0 31 13.5 56t39.5 59.5t37 52.5l107 160q-197 362 -197 897q0 754 336 1130q125 141 299 230.5t352 89.5zM1368 2032q-102 151 -238 151q-344 0 -344 -831q0 -16 9 -201zM930 659q70 -114 200 -114q151 0 238 145t119.5 332t32.5 342q0 73 -13 180z" />
    <glyph glyph-name="one" unicode="1" horiz-adv-x="2306" 
d="M942 2179h-188q-131 0 -219.5 73.5t-88.5 201.5q0 129 88 203.5t220 74.5h479q158 0 245 -88t87 -248v-2093q0 -145 -82 -244.5t-230 -99.5q-142 0 -226.5 100t-84.5 244v1876z" />
    <glyph glyph-name="two" unicode="2" horiz-adv-x="2306" 
d="M1147 553h651q133 0 220 -74t87 -205q0 -127 -88 -200.5t-219 -73.5h-1237q-188 0 -274 86q-70 69 -70 201q5 74 46.5 136t117.5 142q12 13 135.5 153t225.5 256.5t167.5 191t98.5 112.5q180 206 288.5 361.5t108.5 302.5q0 75 -32 140.5t-90.5 105.5t-131.5 40
q-233 0 -307 -274q-33 -125 -58 -189t-82 -111.5t-159 -47.5q-132 0 -209.5 87t-77.5 220q0 177 75 339.5t205 285.5t296 191.5t342 68.5q173 0 330.5 -59.5t279.5 -168.5t192 -260t70 -328q0 -229 -91.5 -422t-264.5 -409q-273 -331 -545 -598z" />
    <glyph glyph-name="three" unicode="3" horiz-adv-x="2306" 
d="M1667 1507q223 -118 332 -278q123 -178 123 -406q0 -197 -76 -363t-210.5 -285t-308.5 -182t-368 -63q-335 0 -577 156q-157 105 -267.5 261t-121.5 325q0 115 86.5 205t199.5 90q163 0 238 -131l69 -119q52 -93 143 -151t189 -58q158 0 259.5 97.5t101.5 254.5
q0 279 -340 307q-163 19 -221 66q-99 78 -99 213q0 95 38.5 147t93.5 75.5t171 55.5q262 69 262 287q-6 97 -79.5 155t-174.5 58q-162 0 -319 -180q-144 -160 -274 -160q-107 0 -185 81.5t-78 188.5q0 146 84.5 266.5t218 204t288 128.5t286.5 45q332 0 569 -189
q116 -96 183 -234t67 -286q0 -200 -70.5 -332t-232.5 -250z" />
    <glyph glyph-name="four" unicode="4" horiz-adv-x="2306" 
d="M1245 586h-794q-140 0 -236 65t-96 197q0 73 33 131l806 1495q70 130 184 214.5t251 84.5q194 0 314 -132.5t120 -330.5v-1175h65q117 0 197.5 -67t89.5 -183q0 -131 -96.5 -215t-222.5 -84h-33v-303q0 -138 -77.5 -231t-213.5 -93t-213.5 93t-77.5 231v303zM1245 1135
v860l-454 -860h454z" />
    <glyph glyph-name="five" unicode="5" horiz-adv-x="2306" 
d="M1016 2179l-41 -352q154 41 270 41q249 0 432.5 -115.5t281 -316t97.5 -445.5q0 -297 -122 -539.5t-349 -382t-528 -139.5q-388 0 -705 217q-205 145 -205 328q0 110 79 200.5t188 90.5q83 0 192 -57l131 -78q146 -86 303 -86q172 0 272.5 131.5t100.5 306.5
q0 163 -92.5 274t-251.5 111q-107 0 -188 -41l-136 -70q-48 -18 -98 -24q-130 0 -208.5 69.5t-78.5 180.5q0 11 18 169.5t47.5 416.5t41.5 360q13 122 89.5 210.5t201.5 88.5h962q130 0 216.5 -72t86.5 -202q0 -127 -87.5 -201t-215.5 -74h-704z" />
    <glyph glyph-name="six" unicode="6" horiz-adv-x="2306" 
d="M1143 1724q115 37 205 37q222 0 413.5 -113t302.5 -307t111 -419q0 -281 -124 -508t-348.5 -355.5t-506.5 -128.5q-281 0 -511.5 119t-363.5 339t-133 505q0 326 153 641t409 645q148 199 348 426q168 193 307 193q113 0 212 -75t99 -183q0 -145 -123 -275l-131 -139
q-117 -125 -319 -402zM831 897q0 -144 103 -248t246 -104q144 0 248 104t104 248q0 141 -104.5 244.5t-247.5 103.5q-142 0 -245.5 -103.5t-103.5 -244.5z" />
    <glyph glyph-name="seven" unicode="7" horiz-adv-x="2306" 
d="M1339 2179h-835q-131 0 -219 74.5t-88 204.5q0 128 87.5 201t219.5 73h1225q164 0 249 -86q90 -88 90 -217q0 -77 -53 -188l-889 -2036q-109 -258 -311 -258q-79 0 -153.5 39t-122 109t-47.5 159q8 90 32 139z" />
    <glyph glyph-name="eight" unicode="8" horiz-adv-x="2306" 
d="M1778 1499q195 -136 270 -262q111 -172 111 -393q0 -279 -133.5 -487t-362.5 -317.5t-508 -109.5q-278 0 -509 109.5t-365 317.5t-134 487q0 211 111 393q83 131 270 262q-132 123 -193 255t-61 314q0 173 73 311t197 231t283.5 140.5t327.5 47.5q227 0 430 -85.5
t327 -251t124 -393.5q0 -185 -61 -315t-197 -254zM877 1991q0 -113 83 -196t195 -83q114 0 194.5 82.5t80.5 196.5q0 113 -80.5 195.5t-194.5 82.5q-112 0 -195 -83t-83 -195zM791 901q0 -150 107 -257t257 -107q97 0 181 48.5t134 134t50 181.5q0 74 -29 140t-79.5 116.5
t-116.5 79.5t-140 29q-96 0 -181.5 -50t-134 -134t-48.5 -181z" />
    <glyph glyph-name="nine" unicode="9" horiz-adv-x="2306" 
d="M1192 1004q-123 -37 -205 -37q-227 0 -416.5 113t-300 306.5t-110.5 419.5q0 283 124 510t347.5 354.5t507.5 127.5q279 0 510 -119t364 -339t133 -505q0 -327 -153.5 -641.5t-407.5 -644.5q-164 -211 -348 -426q-82 -90 -152 -141.5t-155 -51.5q-117 0 -214.5 74.5
t-97.5 183.5q0 143 123 275l131 143q109 116 320 398zM1503 1835q0 141 -104.5 244.5t-247.5 103.5q-141 0 -244.5 -103.5t-103.5 -244.5q0 -144 103 -248t245 -104q144 0 248 104t104 248z" />
    <glyph glyph-name="colon" unicode=":" horiz-adv-x="1217" 
d="M274 1454q0 135 99.5 233.5t236.5 98.5q88 0 164.5 -45t122 -122.5t45.5 -164.5q0 -137 -97.5 -236.5t-234.5 -99.5q-138 0 -237 99t-99 237zM274 266q0 135 99.5 233.5t236.5 98.5q88 0 164.5 -45t122 -122.5t45.5 -164.5q0 -137 -97.5 -236.5t-234.5 -99.5
q-138 0 -237 99t-99 237z" />
    <glyph glyph-name="semicolon" unicode=";" horiz-adv-x="1217" 
d="M373 1454q0 135 99.5 235.5t236.5 100.5q135 0 233 -100.5t98 -235.5t-98 -235.5t-233 -100.5q-138 0 -237 100t-99 236zM156 -176l368 639q81 135 234 135q113 0 204 -80.5t91 -193.5q0 -66 -33 -140l-361 -639q-78 -143 -241 -143q-121 0 -210 86.5t-89 208.5
q6 66 37 127z" />
    <glyph glyph-name="less" unicode="&#x3c;" 
d="M1970 2601v-651l-1081 -570l1081 -569v-647l-1773 946v549z" />
    <glyph glyph-name="equal" unicode="=" 
d="M98 1933h1979v-299h-1979v299zM98 1315h1979v-299h-1979v299z" />
    <glyph glyph-name="greater" unicode="&#x3e;" 
d="M201 164v651l1081 569l-1077 570v647l1769 -946v-545z" />
    <glyph glyph-name="question" unicode="?" horiz-adv-x="2101" 
d="M664 266q0 134 98 233t233 99q139 0 237.5 -98.5t98.5 -233.5q0 -138 -98 -237t-238 -99q-136 0 -233.5 99.5t-97.5 236.5zM1303 1130q0 -149 -41 -233q-37 -69 -111 -110.5t-152 -41.5q-93 0 -161 45.5t-103 122.5t-35 168v258q0 130 61.5 185t196.5 78q345 53 345 327
q0 117 -92.5 187.5t-215.5 70.5q-163 0 -299 -188q-124 -172 -262 -172q-126 0 -210.5 85.5t-84.5 213.5q0 197 136.5 351.5t344 237.5t400.5 83q185 0 356.5 -58.5t309.5 -170t217 -269t79 -346.5q0 -322 -181 -536.5t-498 -287.5z" />
    <glyph glyph-name="at" unicode="@" horiz-adv-x="2884" 
d="M2404 786q-158 -124 -283 -172.5t-327 -48.5q-75 0 -163 67t-91 130q-189 -172 -393 -172q-226 0 -365 160q-123 134 -123 356q0 100 33 229q93 340 365 553q235 189 479 189q115 0 185.5 -39t129.5 -125q97 151 238 151q74 0 119 -41t45 -110q0 -16 -8 -58l-258 -966
q49 0 142 57.5t148 126.5q59 74 90 124t54.5 135t23.5 208q0 259 -128 465t-347 321t-471 115q-287 0 -540 -144.5t-403 -391.5t-150 -537q0 -497 299 -807q147 -162 354 -253t428 -91q196 0 370 63.5t304 151t213.5 168.5t99.5 96q93 82 164 82q69 0 69 -86
q-35 -159 -303 -385q-407 -344 -934 -344q-301 0 -581 143t-467 381q-287 368 -287 906q0 268 125 525t334 437q188 167 424 255.5t485 88.5q247 0 473 -84t399.5 -238t273 -367t99.5 -466q0 -223 -89 -425t-255 -333zM1110 1339q-20 -75 -20 -139q0 -214 196 -225
q136 0 245 104t144 244q21 79 21 143q0 226 -217 226q-130 0 -232 -108.5t-137 -244.5z" />
    <glyph glyph-name="A" unicode="A" horiz-adv-x="2609" 
d="M1839 520h-1048l-66 -237q-86 -324 -279 -324q-132 0 -235 64.5t-121 185.5q0 128 25 197l737 2027q57 158 179.5 255t283.5 97t283.5 -96t179.5 -256l737 -2027q25 -72 25 -197q-14 -120 -117.5 -185t-239.5 -65q-89 0 -159 78t-99 180zM1651 1081l-332 1041l-332 -1041
h664z" />
    <glyph glyph-name="B" unicode="B" horiz-adv-x="2449" 
d="M1729 1507q221 -65 344 -172q221 -196 221 -499q0 -234 -109.5 -426.5t-301 -301t-425.5 -108.5h-823q-181 0 -281 100t-100 281v1970q0 178 100.5 279.5t280.5 101.5h622q362 0 566 -172q105 -89 167 -216.5t62 -262.5q0 -209 -75 -339t-248 -235zM881 545h434
q182 0 262 94q65 70 65 217q-16 279 -344 279h-417v-590zM881 1692h315q114 0 190 74t76 188q0 109 -89 169t-206 60h-286v-491z" />
    <glyph glyph-name="C" unicode="C" horiz-adv-x="2466" 
d="M152 1446q0 287 98 536t280 433t431 283.5t542 99.5q160 0 349 -40.5t327.5 -135.5t138.5 -246q0 -127 -63 -211t-182 -84q-73 0 -234 61q-174 70 -319 70q-236 0 -392.5 -111.5t-232.5 -300.5t-76 -424q0 -470 234 -688q184 -172 463 -172q153 0 249 41l185 86
q74 29 123 29q126 0 198 -88t72 -207q0 -177 -193 -291q-259 -156 -667 -156q-256 0 -495 90.5t-419 262.5q-417 396 -417 1163z" />
    <glyph glyph-name="D" unicode="D" horiz-adv-x="2732" 
d="M254 389v1962q0 178 100.5 279.5t280.5 101.5h590q532 0 872 -250q249 -182 376.5 -484t127.5 -634q0 -390 -154 -701t-446 -487t-686 -176l-688 8q-175 0 -274 101.5t-99 279.5zM881 545h311q350 0 524 184q217 228 217 635q0 434 -250 651q-187 168 -561 168h-241
v-1638z" />
    <glyph glyph-name="E" unicode="E" horiz-adv-x="2011" 
d="M881 2171v-520h585q132 0 222 -75t90 -208q0 -127 -91 -202.5t-221 -75.5h-585v-529h647q136 0 223.5 -74t87.5 -208q0 -128 -89 -203.5t-222 -75.5h-893q-181 0 -281 100t-100 281v1970q0 178 100.5 279.5t280.5 101.5h893q136 0 223.5 -75t87.5 -208q0 -127 -89 -202.5
t-222 -75.5h-647z" />
    <glyph glyph-name="F" unicode="F" horiz-adv-x="1995" 
d="M881 2171v-545h557q135 0 223 -73.5t88 -204.5t-88.5 -205t-222.5 -74h-557v-762q0 -148 -82.5 -248t-229.5 -100q-145 0 -230 100.5t-85 247.5v2044q0 178 100.5 279.5t280.5 101.5h905q134 0 222.5 -75t88.5 -208q0 -127 -90 -202.5t-221 -75.5h-659z" />
    <glyph glyph-name="G" unicode="G" horiz-adv-x="2867" 
d="M2093 1057h-364q-132 0 -222 74.5t-90 203.5q0 130 89 204.5t223 74.5h671q184 0 260 -100t76 -297q0 -542 -356 -918q-351 -369 -897 -369q-294 0 -558 111t-454 324q-344 394 -344 1024q0 382 180 707.5t495.5 513.5t700.5 188q440 0 770 -197q260 -159 275 -344
q0 -125 -81.5 -214t-193.5 -89q-95 0 -221 78l-160 102q-154 102 -385 102q-229 0 -390.5 -124.5t-241.5 -324.5t-80 -427q0 -228 78 -426t237 -320t389 -122q306 0 459 208q91 124 135 357z" />
    <glyph glyph-name="H" unicode="H" horiz-adv-x="2920" 
d="M2040 1118h-1163v-811q0 -148 -82.5 -248t-229.5 -100q-145 0 -230 100.5t-85 247.5v2118q0 147 84 247.5t231 100.5q146 0 229 -100.5t83 -247.5v-746h1163v746q0 147 83.5 247.5t227.5 100.5q145 0 230 -100t85 -248v-2118q0 -149 -83.5 -248.5t-231.5 -99.5
q-145 0 -228 100.5t-83 247.5v811z" />
    <glyph glyph-name="I" unicode="I" horiz-adv-x="1130" 
d="M254 307v2118q0 147 84 247.5t231 100.5q146 0 229 -100.5t83 -247.5v-2118q0 -148 -82.5 -248t-229.5 -100q-145 0 -230 100.5t-85 247.5z" />
    <glyph glyph-name="J" unicode="J" horiz-adv-x="1782" 
d="M1552 2421v-1553q0 -220 -35.5 -391.5t-144.5 -300.5q-102 -123 -267.5 -184.5t-342.5 -61.5q-258 0 -495.5 101.5t-237.5 328.5q0 112 80.5 200.5t189.5 94.5q105 0 221 -69q123 -70 193 -70q209 0 209 352v1553q0 147 84 247.5t231 100.5q145 0 230 -100t85 -248z" />
    <glyph glyph-name="K" unicode="K" horiz-adv-x="2580" 
d="M881 1225v-918q0 -148 -82.5 -248t-229.5 -100q-145 0 -230 100.5t-85 247.5v2118q0 147 84 247.5t231 100.5q146 0 229 -100.5t83 -247.5v-770l860 962q131 156 270 156q128 0 219.5 -84.5t91.5 -206.5q0 -153 -131 -291l-712 -725l831 -880q89 -96 132.5 -167.5
t43.5 -172.5q0 -132 -87 -209.5t-220 -77.5q-142 0 -274 147z" />
    <glyph glyph-name="L" unicode="L" horiz-adv-x="1819" 
d="M881 561h647q136 0 223.5 -74t87.5 -208q0 -128 -89 -203.5t-222 -75.5h-881q-184 0 -288.5 103.5t-104.5 289.5v2032q0 147 84 247.5t231 100.5q146 0 229 -100.5t83 -247.5v-1864z" />
    <glyph glyph-name="M" unicode="M" horiz-adv-x="3457" 
d="M983 1614l-213 -1356q-27 -140 -121.5 -217.5t-242.5 -77.5q-128 0 -193.5 106t-65.5 287l336 2057q30 171 123 253q122 103 279 103q145 0 257 -67t152 -199l459 -1405l422 1347q46 139 155 231.5t250 92.5q153 0 276 -88.5t146 -235.5l365 -2080q0 -402 -254 -402
q-219 0 -299 111q-59 81 -82 254l-213 1286l-385 -1282q-39 -133 -73 -206t-103 -120t-189 -47q-143 0 -224 75t-128 224z" />
    <glyph glyph-name="N" unicode="N" horiz-adv-x="2912" 
d="M881 1655v-1348q0 -148 -82.5 -248t-229.5 -100q-145 0 -230 100.5t-85 247.5v2142q0 138 86 231t221 93q155 0 262 -139l1209 -1520v1311q0 147 84 247.5t231 100.5q144 0 227.5 -100t83.5 -248v-2106q0 -175 -82 -266q-94 -94 -209 -94q-162 0 -249 119z" />
    <glyph glyph-name="O" unicode="O" horiz-adv-x="2961" 
d="M131 1384q0 316 111.5 597t335.5 481q372 336 901 336q304 0 553.5 -106.5t428.5 -299.5t274 -451t95 -557q0 -332 -110.5 -626t-339.5 -500q-180 -164 -410.5 -246t-486.5 -82q-282 0 -537 102t-442 300q-373 394 -373 1052zM799 1380q0 -222 72.5 -426.5t226.5 -333
t385 -128.5q235 0 387.5 126t222.5 327.5t70 434.5q0 223 -74 420t-229.5 316.5t-384.5 119.5q-132 0 -257.5 -59t-213.5 -158q-205 -232 -205 -639z" />
    <glyph glyph-name="P" unicode="P" horiz-adv-x="2384" 
d="M893 897v-590q0 -148 -82.5 -248t-228.5 -100q-145 0 -230.5 100.5t-85.5 247.5v2044q0 178 100.5 279.5t280.5 101.5h639q462 0 696 -229q86 -82 152 -192t100.5 -232t34.5 -244q0 -398 -209 -647q-239 -291 -692 -291h-475zM893 1442h319q202 0 312 110
q102 103 102 279q-9 162 -114 257t-267 95h-352v-741z" />
    <glyph glyph-name="Q" unicode="Q" horiz-adv-x="3109" 
d="M2163 90q-328 -160 -664 -160q-257 0 -502 88.5t-428 255.5q-442 404 -442 1151q0 184 47.5 365.5t138.5 344.5t224 294q185 182 434 275.5t520 93.5q265 0 511.5 -96.5t430.5 -280.5q190 -190 295.5 -456.5t105.5 -543.5q0 -189 -22 -342.5t-76.5 -300t-150.5 -299.5
l213 -180q122 -102 122 -291q-18 -99 -100.5 -170t-181.5 -71q-16 0 -58 8q-69 19 -155 90zM1679 528l-106 99q-82 76 -82 209q9 102 89 182t181 80q108 0 226 -103l90 -82q90 212 90 517q0 205 -80.5 393t-236 303t-363.5 115q-215 0 -372 -114.5t-238.5 -302t-81.5 -399.5
q0 -406 151 -643q186 -290 549 -290q98 0 184 36z" />
    <glyph glyph-name="R" unicode="R" horiz-adv-x="2454" 
d="M881 1110v-803q0 -148 -82.5 -248t-229.5 -100q-145 0 -230 100.5t-85 247.5v2044q0 178 100.5 277.5t280.5 99.5h631q418 0 676 -213q134 -112 208 -272t74 -334q0 -370 -213 -578q-140 -134 -430 -201l533 -585q121 -131 143 -221q8 -50 8 -70q0 -113 -77 -204
t-181 -91q-213 0 -315 135zM881 1548h389q145 0 242.5 86t97.5 226q0 138 -106.5 230.5t-246.5 92.5h-376v-635z" />
    <glyph glyph-name="S" unicode="S" horiz-adv-x="2310" 
d="M188 1925q0 263 138 462t367 305t487 106q155 0 330.5 -33.5t305.5 -119.5t130 -232q0 -128 -81 -218t-206 -90q-54 0 -94 13l-115 41q-149 53 -283 53q-117 0 -214 -59t-97 -166q0 -168 254 -234l168 -45q396 -107 628 -289.5t232 -529.5q0 -424 -233 -668
q-139 -151 -348.5 -221t-438.5 -70q-418 0 -717 144q-105 50 -169 136t-64 196q0 108 81 195t189 87q92 0 160 -29l217 -81q158 -62 307 -62q134 0 239 75.5t105 207.5q0 134 -102 200q-84 53 -164 79.5t-274 84.5q-251 73 -403 153t-243.5 226.5t-91.5 382.5z" />
    <glyph glyph-name="T" unicode="T" horiz-adv-x="2109" 
d="M1376 2171v-1864q0 -149 -83.5 -248.5t-231.5 -99.5q-145 0 -230.5 100.5t-85.5 247.5v1864h-372q-132 0 -222 74.5t-90 203.5q0 131 89.5 207t222.5 76h1364q134 0 222.5 -75t88.5 -208q0 -127 -90 -202.5t-221 -75.5h-361z" />
    <glyph glyph-name="U" unicode="U" horiz-adv-x="2826" 
d="M2601 2421v-1225q0 -266 -43.5 -453t-177.5 -358q-171 -216 -427 -335.5t-536 -119.5q-238 0 -455 80.5t-382.5 227.5t-260 353t-94.5 445v1385q0 147 84.5 247.5t231.5 100.5q145 0 228 -100.5t83 -247.5v-1295q0 -262 131 -421q75 -90 193 -139.5t237 -49.5
q127 0 247.5 56t194.5 157q119 156 119 467v1225q0 147 84 247.5t228 100.5q145 0 230 -100.5t85 -247.5z" />
    <glyph glyph-name="V" unicode="V" horiz-adv-x="2568" 
d="M1290 1049l557 1486q37 99 113 168.5t166 69.5q85 0 164 -32.5t129.5 -94.5t50.5 -143q0 -101 -33 -197l-835 -2105q-95 -254 -299 -254q-106 0 -188 57t-120 156l-852 2146q-32 106 -32 197q0 123 105 196.5t239 73.5q89 0 166 -71t112 -167z" />
    <glyph glyph-name="W" unicode="W" horiz-adv-x="3670" 
d="M1843 1593l-385 -1257q-58 -189 -167 -283t-296 -94q-125 0 -233 79t-139 200l-521 2129q-16 66 -16 107q0 42 12 86q20 78 94 145.5t148 67.5q198 0 274 -90q55 -66 99 -238l331 -1441l467 1486q91 283 332 283q247 0 336 -283l471 -1486l324 1433q40 170 98 242
q77 94 279 94q75 0 151 -68.5t94 -148.5q13 -47 13 -86q0 -37 -17 -107l-491 -2060q-33 -152 -144 -248t-266 -96q-319 0 -430 344z" />
    <glyph glyph-name="X" unicode="X" horiz-adv-x="2626" 
d="M1700 1462l733 -970q82 -116 82 -185q0 -138 -69 -243t-189 -105q-217 0 -373 213l-549 758l-536 -754q-145 -217 -369 -217q-116 0 -189 107t-73 241q0 74 82 180l729 975l-561 738q-119 168 -119 245q0 129 79 226.5t195 97.5q192 0 304 -156l458 -626l434 618
q113 164 324 164q122 0 196 -98t74 -234q0 -84 -122 -254z" />
    <glyph glyph-name="Y" unicode="Y" horiz-adv-x="2482" 
d="M1565 1290v-983q0 -148 -83.5 -248t-232.5 -100q-143 0 -227 100.5t-84 247.5v983l-659 901q-17 25 -50.5 71t-51 85.5t-17.5 81.5q0 131 82 235.5t200 104.5q195 0 308 -164l499 -721l529 729q109 160 311 160q120 0 199 -99t79 -233q0 -93 -122 -254z" />
    <glyph glyph-name="Z" unicode="Z" horiz-adv-x="2261" 
d="M877 561h1019q133 0 222.5 -74.5t89.5 -207.5q0 -128 -91 -203.5t-221 -75.5h-1429q-107 0 -176.5 23t-138.5 92q-82 81 -82 217q0 89 82 205l1224 1634h-946q-132 0 -221.5 74.5t-89.5 203.5q0 130 89 206.5t222 76.5h1360q171 0 266 -86q103 -88 103 -209
q0 -135 -91 -266z" />
    <glyph glyph-name="bracketleft" unicode="[" horiz-adv-x="1356" 
d="M729 2249v-2310h262q117 0 194 -64.5t77 -177.5q0 -109 -79 -175.5t-192 -66.5h-413q-167 0 -266 88t-99 252v2597q0 166 98 253t267 87h413q117 0 194 -64.5t77 -177.5q0 -74 -37 -128.5t-99 -83.5t-135 -29h-262z" />
    <glyph glyph-name="backslash" unicode="\" horiz-adv-x="1954" 
d="M1364 -369l-1192 2876q-20 51 -20 127q0 74 66 121t151 47q107 0 163 -148l1188 -2875q45 -114 45 -176q-6 -75 -61.5 -119.5t-134.5 -44.5q-131 0 -205 192z" />
    <glyph glyph-name="bracketright" unicode="]" horiz-adv-x="1356" 
d="M627 2249h-242q-118 0 -204.5 63t-86.5 178q0 113 77 177.5t194 64.5h413q108 0 191 -38.5t128.5 -115t45.5 -186.5v-2597q0 -159 -88.5 -249.5t-251.5 -90.5h-418q-118 0 -204.5 63.5t-86.5 178.5q0 114 87 178t204 64h242v2310z" />
    <glyph glyph-name="asciicircum" unicode="^" 
d="M692 1421h-577l606 1327h729l606 -1327h-577l-394 885z" />
    <glyph glyph-name="underscore" unicode="_" 
d="M-41 -221h2241v-389h-2241v389z" />
    <glyph glyph-name="grave" unicode="`" 
d="M1339 2281l-634 193q-70 22 -111 80.5t-41 136.5t62.5 131t146.5 53q45 0 69 -8l644 -188q73 -22 118 -76.5t45 -128.5q0 -88 -62.5 -148.5t-150.5 -60.5q-28 0 -86 16z" />
    <glyph glyph-name="a" unicode="a" horiz-adv-x="2417" 
d="M1577 209q-109 -132 -223.5 -191t-280.5 -59q-327 0 -590 229q-356 317 -356 852q0 494 315 803q275 275 619 275q165 0 281 -56t239 -182q92 221 291 221q129 0 218 -89t89 -218v-1466q0 -148 -84.5 -252.5t-226.5 -104.5q-207 0 -291 238zM729 1049q0 -212 99.5 -370.5
t297.5 -158.5q133 0 232.5 71t151 186t51.5 243q0 233 -107 384.5t-328 151.5q-186 0 -291.5 -156.5t-105.5 -350.5z" />
    <glyph glyph-name="b" unicode="b" horiz-adv-x="2388" 
d="M840 1942q240 176 471 176q198 0 371.5 -85t303 -233t200.5 -335.5t71 -383.5q0 -549 -315 -864q-252 -258 -611 -258q-320 0 -500 238q-93 -226 -278 -226q-140 0 -227.5 90.5t-87.5 229.5v2380q0 89 35 166t103.5 121t160.5 44q140 0 221.5 -95t81.5 -236v-729z
M836 1036q0 -200 112.5 -358t304.5 -158q128 0 220 76.5t139 197t47 242.5q0 198 -108 359t-298 161q-132 0 -226.5 -76t-142.5 -195.5t-48 -248.5z" />
    <glyph glyph-name="c" unicode="c" horiz-adv-x="1995" 
d="M127 1053q0 227 78 434t237 352q139 131 323.5 205t373.5 74q251 0 477.5 -87.5t226.5 -293.5q0 -114 -68 -200.5t-182 -86.5q-71 4 -204 61q-133 45 -230 45q-164 0 -295 -131q-135 -146 -135 -389q0 -147 54.5 -264.5t161.5 -184.5t255 -67q104 0 225 58q110 49 164 49
q109 0 183.5 -69t74.5 -173q0 -146 -116.5 -242t-276.5 -140t-295 -44q-470 0 -758 311q-274 298 -274 783z" />
    <glyph glyph-name="d" unicode="d" horiz-adv-x="2392" 
d="M1552 1925v746q0 141 80.5 236t222.5 95q139 0 219 -94.5t80 -236.5v-2356q0 -145 -76.5 -244.5t-217.5 -99.5q-118 0 -186.5 59t-112.5 179q-98 -133 -227 -191.5t-302 -58.5q-200 0 -377 102.5t-299 274.5q-225 327 -225 758q0 215 102.5 437t266.5 365
q253 222 581 222q236 0 471 -193zM733 1065q0 -202 113 -359t305 -157q127 0 219 76.5t139 197.5t47 246q0 123 -47 243t-139 196.5t-219 76.5q-132 0 -227 -75t-143 -194.5t-48 -250.5z" />
    <glyph glyph-name="e" unicode="e" horiz-adv-x="2290" 
d="M778 840q63 -181 180 -262q126 -95 283 -95q176 0 340 82l172 86q43 22 115 29q64 0 125 -34t97 -92t36 -120q0 -169 -242 -307q-295 -168 -676 -168q-250 0 -472.5 98t-379.5 287q-225 273 -225 705q0 288 136.5 534t375 390.5t524.5 144.5q274 0 503 -136t359 -368
t130 -500q0 -143 -59.5 -208.5t-198.5 -65.5h-1123zM1569 1249q-96 377 -410 377q-277 0 -401 -377h811z" />
    <glyph glyph-name="f" unicode="f" horiz-adv-x="1585" 
d="M1053 1511v-1204q0 -144 -79.5 -240t-219.5 -96q-139 0 -221 97.5t-82 238.5v1204h-86q-129 0 -216.5 72.5t-87.5 202.5q0 125 87.5 197.5t216.5 72.5h86v299q0 294 200 471q179 160 426 160q377 0 377 -270q0 -111 -62 -185.5t-171 -81.5q-90 -6 -129 -40t-39 -123v-230
h168q129 0 216 -71.5t87 -198.5t-88 -201t-215 -74h-168z" />
    <glyph glyph-name="g" unicode="g" horiz-adv-x="2376" 
d="M1556 1880q125 225 291 225q135 0 213 -94.5t78 -232.5v-1590q0 -242 -72.5 -436t-210.5 -329.5t-334 -207t-436 -71.5q-424 0 -733 172q-184 99 -184 270q0 100 74.5 178t175.5 84q68 0 123 -16l168 -57q195 -70 364 -70q309 0 418 197q48 92 65 331
q-108 -138 -221 -206t-278 -68q-187 0 -363 77.5t-301 217.5q-262 290 -262 811q0 226 86.5 439t245.5 364q116 113 269 181.5t308 68.5q165 0 281.5 -56t234.5 -182zM733 1061q0 -271 119 -406q115 -135 287 -135q191 0 298 159.5t107 360.5q0 130 -50 248.5t-147.5 193
t-232.5 74.5q-178 0 -279.5 -152.5t-101.5 -342.5z" />
    <glyph glyph-name="h" unicode="h" horiz-adv-x="2363" 
d="M840 1942q288 172 540 172q332 0 541 -197q205 -195 205 -565v-1045q0 -144 -80.5 -240t-222.5 -96q-137 0 -218 97.5t-81 238.5v877q0 180 -84 296.5t-260 116.5q-146 0 -243 -111.5t-97 -260.5v-918q0 -144 -80.5 -240t-222.5 -96q-137 0 -218 97.5t-81 238.5v2364
q0 89 35 166t103.5 121t160.5 44q140 0 221.5 -95t81.5 -236v-729z" />
    <glyph glyph-name="i" unicode="i" horiz-adv-x="1171" 
d="M238 2650q0 143 102.5 247.5t245.5 104.5q94 0 174 -48t127 -129t47 -175q0 -142 -102.5 -247t-245.5 -105t-245.5 105t-102.5 247zM279 307v1462q0 142 80 237t219 95q140 0 221.5 -95t81.5 -237v-1462q0 -144 -80.5 -240t-222.5 -96q-137 0 -218 97.5t-81 238.5z" />
    <glyph glyph-name="j" unicode="j" horiz-adv-x="1176" 
d="M242 2650q0 143 102.5 247.5t245.5 104.5q94 0 174 -48t127 -129t47 -175q0 -142 -102.5 -247t-245.5 -105t-245.5 105t-102.5 247zM303 -512v2281q0 142 80.5 237t222.5 95q139 0 219 -94.5t80 -237.5v-2281q0 -145 -80 -240.5t-219 -95.5t-221 97.5t-82 238.5z" />
    <glyph glyph-name="k" unicode="k" horiz-adv-x="2204" 
d="M840 987v-680q0 -142 -80.5 -239t-222.5 -97q-137 0 -218 97.5t-81 238.5v2364q0 89 35 166t103.5 121t160.5 44q140 0 221.5 -95t81.5 -236v-1278l598 614q93 98 274 98q76 0 146 -64.5t92 -144.5q8 -48 8 -69q0 -136 -111 -234l-426 -405l529 -656q123 -163 123 -245
q0 -128 -73 -222t-190 -94q-188 0 -290 140z" />
    <glyph glyph-name="l" unicode="l" horiz-adv-x="1077" 
d="M840 2671v-2364q0 -144 -80.5 -240t-222.5 -96q-137 0 -218 97.5t-81 238.5v2364q0 89 35 166t103.5 121t160.5 44q140 0 221.5 -95t81.5 -236z" />
    <glyph glyph-name="m" unicode="m" horiz-adv-x="3531" 
d="M827 1905q228 209 537 209q234 0 401 -99q90 -50 168 -164q159 131 310 197t333 66q193 0 357.5 -90t260 -249t95.5 -354v-1114q0 -146 -78.5 -241t-220.5 -95q-93 0 -161 45.5t-103 122.5t-35 168v979q0 140 -89 225.5t-230 85.5q-133 0 -220.5 -90t-87.5 -221v-979
q0 -145 -80 -240.5t-219 -95.5t-221 97.5t-82 238.5v918q0 164 -76.5 268t-234.5 104q-130 0 -220.5 -89.5t-90.5 -221.5v-979q0 -144 -80.5 -240t-222.5 -96q-137 0 -218 97.5t-81 238.5v1450q0 135 74 236.5t204 107.5q174 0 311 -196z" />
    <glyph glyph-name="n" unicode="n" horiz-adv-x="2355" 
d="M823 1892q127 118 252.5 170t296.5 52q318 0 529 -181q126 -110 171.5 -246.5t45.5 -330.5v-1049q0 -144 -80.5 -240t-222.5 -96q-137 0 -218 97.5t-81 238.5v910q0 163 -91 271.5t-254 108.5q-93 0 -169 -50t-119 -131.5t-43 -174.5v-934q0 -144 -80.5 -240t-222.5 -96
q-137 0 -218 97.5t-81 238.5v1442q0 143 75.5 244.5t214.5 107.5q210 0 295 -209z" />
    <glyph glyph-name="o" unicode="o" horiz-adv-x="2277" 
d="M131 1036q0 214 67.5 410.5t202.5 343.5q142 154 336.5 241t401.5 87q204 0 401 -87.5t336 -240.5q135 -149 200.5 -343t65.5 -411q0 -213 -65.5 -405.5t-200.5 -343.5q-138 -153 -333.5 -240.5t-399.5 -87.5q-209 0 -405.5 87t-336.5 241q-270 287 -270 749zM725 1036
q0 -122 46.5 -242t138 -197t216.5 -77q131 0 227.5 76t147.5 196t51 244q0 125 -50.5 246.5t-147.5 197.5t-228 76q-188 0 -294.5 -161.5t-106.5 -358.5z" />
    <glyph glyph-name="p" unicode="p" horiz-adv-x="2376" 
d="M819 1872q216 242 496 242q360 0 602 -230q158 -154 243 -367t85 -436q0 -290 -108 -547t-321 -416t-505 -159q-242 0 -471 176v-647q0 -144 -80.5 -240t-222.5 -96q-137 0 -218 97.5t-81 238.5v2257q0 150 71.5 253t214.5 103q114 0 180 -57.5t115 -171.5zM819 1036
q0 -131 49.5 -251t147 -194.5t233.5 -74.5q121 0 211 78.5t136 199t46 242.5q0 121 -46 242.5t-136 199.5t-211 78q-136 0 -233.5 -74.5t-147 -194t-49.5 -251.5z" />
    <glyph glyph-name="q" unicode="q" horiz-adv-x="2380" 
d="M1552 1892q126 209 283 209q131 0 219 -85t88 -218v-2310q0 -146 -78.5 -241t-220.5 -95q-93 0 -161 45.5t-103 122.5t-35 168v651q-234 -180 -504 -180q-153 0 -325 79t-289 195q-295 302 -295 824q0 184 65 372.5t185.5 344.5t286.5 248t360 92q303 0 524 -222z
M733 1036q0 -127 47.5 -246.5t141.5 -196.5t221 -77q132 0 227 76t143 195.5t48 248.5t-48 248.5t-143 195.5t-227 76q-126 0 -220.5 -76.5t-142 -196t-47.5 -247.5z" />
    <glyph glyph-name="r" unicode="r" horiz-adv-x="1618" 
d="M840 1888q216 226 405 226q130 0 223 -83t93 -208q0 -131 -75.5 -188t-232.5 -107q-220 -74 -319 -152q-94 -74 -94 -246v-823q0 -144 -80.5 -240t-222.5 -96q-137 0 -218 97.5t-81 238.5v1450q0 163 73 242q90 102 217 102q211 0 312 -213z" />
    <glyph glyph-name="s" unicode="s" horiz-adv-x="1905" 
d="M229 1446q0 257 177 434q225 238 577 238q317 0 533 -148q172 -122 172 -262q0 -100 -72.5 -183t-177.5 -83q-57 5 -238 82q-149 61 -246 61q-138 -9 -143 -98q0 -56 54.5 -98t134.5 -73.5t126 -49.5q330 -125 459 -258q148 -163 148 -361q0 -145 -58.5 -279t-167.5 -229
q-208 -180 -553 -180q-147 0 -330.5 45.5t-319.5 145t-136 251.5q0 94 75 178.5t171 84.5q38 0 80.5 -10t76 -23.5t78 -34.5t80.5 -39q146 -65 238 -65q64 0 122 35.5t58 95.5q0 74 -57 106.5t-177 77.5l-163 61q-250 97 -385.5 225.5t-135.5 352.5z" />
    <glyph glyph-name="t" unicode="t" horiz-adv-x="1573" 
d="M1036 1528v-1221q0 -145 -80 -240.5t-219 -95.5t-221 97.5t-82 238.5v1221q-226 0 -303 90q-70 76 -70 184q0 67 38 136t98 98q73 37 237 37v376q0 143 81 239.5t222 96.5q138 0 218.5 -96t80.5 -240v-376h172q129 0 216 -72t87 -199q0 -126 -87.5 -200t-215.5 -74h-172z
" />
    <glyph glyph-name="u" unicode="u" horiz-adv-x="2343" 
d="M2105 1769v-958q0 -317 -147 -496q-134 -172 -345.5 -264t-441.5 -92q-227 0 -439.5 92.5t-346.5 263.5q-147 191 -147 496v958q0 142 80 237t219 95q140 0 221.5 -95t81.5 -237v-884q0 -170 94 -258q97 -99 237 -99q133 0 238 99q94 88 94 258v884q0 142 80.5 237
t222.5 95q139 0 219 -94.5t80 -237.5z" />
    <glyph glyph-name="v" unicode="v" horiz-adv-x="2134" 
d="M1065 893l324 967q34 100 108.5 170.5t165.5 70.5q136 0 240 -68.5t104 -189.5q0 -109 -57 -262l-516 -1278q-63 -165 -141 -248.5t-228 -83.5q-240 0 -348 287l-557 1393q-29 79 -29 192q0 122 104 190t240 68q89 0 159 -70t103 -167z" />
    <glyph glyph-name="w" unicode="w" horiz-adv-x="3174" 
d="M2200 905l282 955q28 98 96.5 169.5t157.5 71.5q140 0 244 -60t104 -177q0 -100 -24 -193l-447 -1274q-67 -194 -157 -310t-256 -116q-239 0 -349 320l-258 753l-209 -647q-61 -199 -150.5 -312.5t-266.5 -113.5q-125 0 -214 92t-135 228l-483 1388q-24 87 -24 189
q0 113 105 173t239 60q86 0 155 -72t95 -165l286 -963l295 930q85 270 295 270q233 0 320 -270z" />
    <glyph glyph-name="x" unicode="x" horiz-adv-x="2265" 
d="M1552 1090l525 -586q70 -77 94 -168q8 -25 8 -70q0 -110 -74 -200.5t-176 -90.5q-207 0 -352 185l-385 467l-389 -467q-151 -185 -361 -185q-102 0 -178 94t-76 210q0 45 9 69q28 88 102 168l532 574l-438 475q-79 95 -98 172q-8 24 -8 69q0 115 75.5 207t182.5 92
q210 0 315 -139l332 -422l340 414q112 135 319 135q66 0 125.5 -43t94 -113.5t34.5 -142.5q0 -40 -12 -78q-26 -86 -102 -168z" />
    <glyph glyph-name="y" unicode="y" horiz-adv-x="2159" 
d="M1077 934l353 885q52 132 114.5 209t163.5 77q80 0 162 -32.5t134 -93.5t52 -140q0 -105 -33 -188l-970 -2310q-86 -213 -254 -213q-124 0 -225.5 72.5t-110.5 189.5q0 84 37 184l262 614l-619 1467q-37 94 -37 188q0 117 107.5 189.5t237.5 72.5q103 0 163 -76t111 -206
z" />
    <glyph glyph-name="z" unicode="z" horiz-adv-x="1962" 
d="M946 545h651q130 0 217 -72t87 -199q0 -126 -88 -200t-216 -74h-1220q-172 0 -238 57q-73 60 -73 148q0 81 69 180l840 1147h-602q-129 0 -216 72.5t-87 201.5q0 125 87.5 198t215.5 73h1220q94 0 170 -57.5t76 -147.5q0 -106 -82 -221z" />
    <glyph glyph-name="braceleft" unicode="{" 
d="M1470 -786q-43 0 -97.5 -2.5t-86.5 -2.5q-362 0 -508 164q-119 139 -119 434v570q0 158 -40.5 241t-188.5 127q-41 13 -65.5 91t-24.5 180q0 225 94 250q133 35 179 114t46 222v589q0 313 144 443q156 143 667 143h54q72 0 134 -44.5t99 -118t37 -148.5
q0 -141 -79 -226.5t-191 -85.5q-99 0 -144 -45q-73 -69 -73 -262v-360q0 -191 -47 -298.5t-191 -201.5q141 -85 189.5 -199.5t48.5 -300.5v-442q0 -74 40.5 -134.5t127.5 -70.5h53q70 -1 133.5 -46.5t100 -117.5t36.5 -147q0 -114 -82 -210t-188 -105h-58z" />
    <glyph glyph-name="bar" unicode="|" 
d="M758 2728h659v-3412h-659v3412z" />
    <glyph glyph-name="braceright" unicode="}" 
d="M1511 -193q0 -296 -118 -434q-146 -164 -508 -164q-32 0 -86 2.5t-99 2.5h-57q-106 9 -188 105t-82 210q0 75 36.5 147t100 117.5t133.5 46.5h53q88 10 128 70.5t40 134.5v442q0 186 48 300t190 200q-95 61 -148 132t-71.5 155.5t-18.5 212.5v360q0 193 -73 262
q-29 29 -74 37t-70 8q-112 0 -191 85.5t-79 226.5q0 118 81 214.5t189 96.5h53q512 0 668 -143q143 -129 143 -443v-589q0 -143 46.5 -222t179.5 -114q94 -25 94 -250q0 -102 -24.5 -180t-65.5 -91q-104 -32 -153.5 -82.5t-63 -115t-13.5 -170.5v-570z" />
    <glyph glyph-name="asciitilde" unicode="~" 
d="M160 1434q0 134 70 243t188.5 170.5t253.5 61.5q224 0 405 -90l193 -99q93 -49 164 -49q62 0 94.5 27.5t68.5 87.5q63 127 189 127q98 0 167.5 -63t69.5 -158q0 -146 -79.5 -259.5t-210 -177t-267.5 -63.5q-161 0 -389 115q-232 116 -327 127q-97 0 -144 -82l-53 -86
q-53 -78 -164 -78q-102 0 -165.5 70.5t-63.5 175.5z" />
    <glyph glyph-name="Adieresis" unicode="&#xc4;" horiz-adv-x="2609" 
d="M1839 520h-1048l-66 -237q-86 -324 -279 -324q-132 0 -235 64.5t-121 185.5q0 128 25 197l737 2027q57 158 179.5 255t283.5 97t283.5 -96t179.5 -256l737 -2027q25 -72 25 -197q-14 -120 -117.5 -185t-239.5 -65q-89 0 -159 78t-99 180zM1651 1081l-332 1041l-332 -1041
h664zM573 3244q0 123 88 213t211 90q81 0 150.5 -41.5t111 -111t41.5 -150.5q0 -123 -90 -211t-213 -88t-211 88t-88 211zM1462 3244q0 123 88 213t211 90t211 -90t88 -213t-88 -211t-211 -88t-211 88t-88 211z" />
    <glyph glyph-name="Aring" unicode="&#xc5;" horiz-adv-x="2609" 
d="M1839 520h-1048l-66 -237q-86 -324 -279 -324q-132 0 -235 64.5t-121 185.5q0 128 25 197l737 2027q57 158 179.5 255t283.5 97t283.5 -96t179.5 -256l737 -2027q25 -72 25 -197q-14 -120 -117.5 -185t-239.5 -65q-89 0 -159 78t-99 180zM1651 1081l-332 1041l-332 -1041
h664zM942 3314q0 153 111.5 262.5t265.5 109.5q98 0 184.5 -50.5t137 -137t50.5 -184.5q0 -154 -109.5 -265.5t-262.5 -111.5q-100 0 -187 51.5t-138.5 138.5t-51.5 187zM1147 3314q0 -70 51 -121t121 -51q69 0 118 51t49 121q0 68 -49 118t-118 50q-70 0 -121 -50t-51 -118
z" />
    <glyph glyph-name="Ccedilla" unicode="&#xc7;" horiz-adv-x="2466" 
d="M1659 -61l-332 -467q-59 -86 -164 -86q-67 0 -128 55t-64 121q0 69 41 123l196 278q-400 87 -639 320q-417 417 -417 1167q0 286 98 533.5t280 431.5t431 283.5t542 99.5q289 0 552 -90t263 -312q0 -126 -63.5 -220.5t-181.5 -94.5q-64 0 -234 61q-174 70 -319 70
q-236 0 -392.5 -111.5t-232.5 -300.5t-76 -424q0 -465 234 -688q180 -168 463 -168q164 0 249 41l185 82q72 28 123 33q122 0 196 -89.5t74 -209.5q0 -202 -215 -305t-469 -133z" />
    <glyph glyph-name="Eacute" unicode="&#xc9;" horiz-adv-x="2011" 
d="M881 2171v-520h585q132 0 222 -75t90 -208q0 -127 -91 -202.5t-221 -75.5h-585v-529h647q136 0 223.5 -74t87.5 -208q0 -128 -89 -203.5t-222 -75.5h-893q-181 0 -281 100t-100 281v1970q0 178 100.5 279.5t280.5 101.5h893q136 0 223.5 -75t87.5 -208q0 -127 -89 -202.5
t-222 -75.5h-647zM623 3359l643 188q24 8 69 8q82 0 142.5 -51.5t66.5 -132.5q0 -170 -151 -217l-635 -193q-58 -16 -86 -16q-88 0 -150.5 61.5t-62.5 147.5q0 74 46 129t118 76z" />
    <glyph glyph-name="Ntilde" unicode="&#xd1;" horiz-adv-x="2912" 
d="M881 1655v-1348q0 -148 -82.5 -248t-229.5 -100q-145 0 -230 100.5t-85 247.5v2142q0 138 86 231t221 93q155 0 262 -139l1209 -1520v1311q0 147 84 247.5t231 100.5q144 0 227.5 -100t83.5 -248v-2106q0 -175 -82 -266q-94 -94 -209 -94q-162 0 -249 119zM647 3150
q0 176 130 292t312 122q196 0 352 -78l168 -86q74 -41 144 -41q53 0 81.5 24t57.5 74q55 111 164 111q85 0 147 -55.5t62 -137.5q0 -126 -69.5 -225t-182 -154t-232.5 -55q-142 0 -340 98q-199 104 -282 111q-87 0 -127 -70l-45 -73q-46 -70 -144 -70q-87 0 -141.5 61
t-54.5 152z" />
    <glyph glyph-name="Odieresis" unicode="&#xd6;" horiz-adv-x="2961" 
d="M131 1384q0 316 111.5 597t335.5 481q372 336 901 336q304 0 553.5 -106.5t428.5 -299.5t274 -451t95 -557q0 -332 -110.5 -626t-339.5 -500q-180 -164 -410.5 -246t-486.5 -82q-282 0 -537 102t-442 300q-373 394 -373 1052zM799 1380q0 -222 72.5 -426.5t226.5 -333
t385 -128.5q235 0 387.5 126t222.5 327.5t70 434.5q0 223 -74 420t-229.5 316.5t-384.5 119.5q-132 0 -257.5 -59t-213.5 -158q-205 -232 -205 -639zM741 3244q0 123 88 213t211 90q81 0 150.5 -41.5t111 -111t41.5 -150.5q0 -123 -90 -211t-213 -88t-211 88t-88 211z
M1630 3244q0 123 88 213t211 90t211 -90t88 -213t-88 -211t-211 -88t-211 88t-88 211z" />
    <glyph glyph-name="Udieresis" unicode="&#xdc;" horiz-adv-x="2826" 
d="M2601 2421v-1225q0 -266 -43.5 -453t-177.5 -358q-171 -216 -427 -335.5t-536 -119.5q-238 0 -455 80.5t-382.5 227.5t-260 353t-94.5 445v1385q0 147 84.5 247.5t231.5 100.5q145 0 228 -100.5t83 -247.5v-1295q0 -262 131 -421q75 -90 193 -139.5t237 -49.5
q127 0 247.5 56t194.5 157q119 156 119 467v1225q0 147 84 247.5t228 100.5q145 0 230 -100.5t85 -247.5zM672 3244q0 123 88 213t211 90q81 0 150.5 -41.5t111 -111t41.5 -150.5q0 -123 -90 -211t-213 -88t-211 88t-88 211zM1561 3244q0 123 88 213t211 90t211 -90t88 -213
t-88 -211t-211 -88t-211 88t-88 211z" />
    <glyph glyph-name="aacute" unicode="&#xe1;" horiz-adv-x="2417" 
d="M1577 209q-109 -132 -223.5 -191t-280.5 -59q-327 0 -590 229q-356 317 -356 852q0 494 315 803q275 275 619 275q165 0 281 -56t239 -182q92 221 291 221q129 0 218 -89t89 -218v-1466q0 -148 -84.5 -252.5t-226.5 -104.5q-207 0 -291 238zM729 1049q0 -212 99.5 -370.5
t297.5 -158.5q133 0 232.5 71t151 186t51.5 243q0 233 -107 384.5t-328 151.5q-186 0 -291.5 -156.5t-105.5 -350.5zM828 2683l643 188q24 8 69 8q82 0 142.5 -51.5t66.5 -132.5q0 -170 -151 -217l-635 -193q-58 -16 -86 -16q-88 0 -150.5 61.5t-62.5 147.5q0 74 46 129
t118 76z" />
    <glyph glyph-name="agrave" unicode="&#xe0;" horiz-adv-x="2417" 
d="M1577 209q-109 -132 -223.5 -191t-280.5 -59q-327 0 -590 229q-356 317 -356 852q0 494 315 803q275 275 619 275q165 0 281 -56t239 -182q92 221 291 221q129 0 218 -89t89 -218v-1466q0 -148 -84.5 -252.5t-226.5 -104.5q-207 0 -291 238zM729 1049q0 -212 99.5 -370.5
t297.5 -158.5q133 0 232.5 71t151 186t51.5 243q0 233 -107 384.5t-328 151.5q-186 0 -291.5 -156.5t-105.5 -350.5zM1450 2285l-634 193q-70 22 -111 80.5t-41 136.5t62.5 131t146.5 53q45 0 69 -8l644 -188q73 -22 118 -76.5t45 -128.5q0 -88 -62.5 -148.5t-150.5 -60.5
q-28 0 -86 16z" />
    <glyph glyph-name="acircumflex" unicode="&#xe2;" horiz-adv-x="2417" 
d="M1577 209q-109 -132 -223.5 -191t-280.5 -59q-327 0 -590 229q-356 317 -356 852q0 494 315 803q275 275 619 275q165 0 281 -56t239 -182q92 221 291 221q129 0 218 -89t89 -218v-1466q0 -148 -84.5 -252.5t-226.5 -104.5q-207 0 -291 238zM729 1049q0 -212 99.5 -370.5
t297.5 -158.5q133 0 232.5 71t151 186t51.5 243q0 233 -107 384.5t-328 151.5q-186 0 -291.5 -156.5t-105.5 -350.5zM1208 2396l-462 -176q-58 -16 -86 -16q-82 0 -141.5 66.5t-59.5 150.5q0 59 39.5 110.5t95.5 69.5l533 197q48 16 77 16q13 0 40 -7.5t34 -8.5l520 -177
q160 -57 160 -196q0 -87 -64 -150t-149 -63q-17 0 -49 8z" />
    <glyph glyph-name="adieresis" unicode="&#xe4;" horiz-adv-x="2417" 
d="M1577 209q-109 -132 -223.5 -191t-280.5 -59q-327 0 -590 229q-356 317 -356 852q0 494 315 803q275 275 619 275q165 0 281 -56t239 -182q92 221 291 221q129 0 218 -89t89 -218v-1466q0 -148 -84.5 -252.5t-226.5 -104.5q-207 0 -291 238zM729 1049q0 -212 99.5 -370.5
t297.5 -158.5q133 0 232.5 71t151 186t51.5 243q0 233 -107 384.5t-328 151.5q-186 0 -291.5 -156.5t-105.5 -350.5zM471 2560q0 123 88 213t211 90q81 0 150.5 -41.5t111 -111t41.5 -150.5q0 -123 -90 -211t-213 -88t-211 88t-88 211zM1360 2560q0 123 88 213t211 90
t211 -90t88 -213t-88 -211t-211 -88t-211 88t-88 211z" />
    <glyph glyph-name="atilde" unicode="&#xe3;" horiz-adv-x="2417" 
d="M1577 209q-109 -132 -223.5 -191t-280.5 -59q-327 0 -590 229q-356 317 -356 852q0 494 315 803q275 275 619 275q165 0 281 -56t239 -182q92 221 291 221q129 0 218 -89t89 -218v-1466q0 -148 -84.5 -252.5t-226.5 -104.5q-207 0 -291 238zM729 1049q0 -212 99.5 -370.5
t297.5 -158.5q133 0 232.5 71t151 186t51.5 243q0 233 -107 384.5t-328 151.5q-186 0 -291.5 -156.5t-105.5 -350.5zM398 2429q0 176 130 292t312 122q196 0 352 -78l168 -86q74 -41 144 -41q53 0 81.5 24t57.5 74q55 111 164 111q85 0 147 -55.5t62 -137.5
q0 -126 -69.5 -225t-182 -154t-232.5 -55q-142 0 -340 98q-199 104 -282 111q-87 0 -127 -70l-45 -73q-46 -70 -144 -70q-87 0 -141.5 61t-54.5 152z" />
    <glyph glyph-name="aring" unicode="&#xe5;" horiz-adv-x="2417" 
d="M1577 209q-109 -132 -223.5 -191t-280.5 -59q-327 0 -590 229q-356 317 -356 852q0 494 315 803q275 275 619 275q165 0 281 -56t239 -182q92 221 291 221q129 0 218 -89t89 -218v-1466q0 -148 -84.5 -252.5t-226.5 -104.5q-207 0 -291 238zM729 1049q0 -212 99.5 -370.5
t297.5 -158.5q133 0 232.5 71t151 186t51.5 243q0 233 -107 384.5t-328 151.5q-186 0 -291.5 -156.5t-105.5 -350.5zM832 2630q0 153 111.5 262.5t265.5 109.5q98 0 184.5 -50.5t137 -137t50.5 -184.5q0 -154 -109.5 -265.5t-262.5 -111.5q-100 0 -187 51.5t-138.5 138.5
t-51.5 187zM1037 2630q0 -70 51 -121t121 -51q69 0 118 51t49 121q0 68 -49 118t-118 50q-70 0 -121 -50t-51 -118z" />
    <glyph glyph-name="ccedilla" unicode="&#xe7;" horiz-adv-x="1995" 
d="M1376 -25l-360 -462q-81 -115 -168 -115q-80 0 -140.5 59t-60.5 137q0 64 49 127l209 275q-164 26 -277.5 87.5t-226.5 186.5q-274 298 -274 779q0 229 78 439t237 351q144 130 326.5 202.5t370.5 72.5q253 0 478.5 -85.5t225.5 -291.5q0 -114 -68 -200.5t-182 -86.5
q-58 3 -204 57q-125 49 -230 49q-160 0 -295 -135q-135 -141 -135 -385q0 -148 54.5 -267t161.5 -186t255 -67q95 0 225 62q132 49 164 49q109 0 183.5 -69t74.5 -173q0 -167 -127.5 -251.5t-343.5 -158.5z" />
    <glyph glyph-name="eacute" unicode="&#xe9;" horiz-adv-x="2290" 
d="M778 840q63 -181 180 -262q126 -95 283 -95q176 0 340 82l172 86q43 22 115 29q64 0 125 -34t97 -92t36 -120q0 -169 -242 -307q-295 -168 -676 -168q-250 0 -472.5 98t-379.5 287q-225 273 -225 705q0 288 136.5 534t375 390.5t524.5 144.5q274 0 503 -136t359 -368
t130 -500q0 -143 -59.5 -208.5t-198.5 -65.5h-1123zM1569 1249q-96 377 -410 377q-277 0 -401 -377h811zM766 2683l643 188q24 8 69 8q82 0 142.5 -51.5t66.5 -132.5q0 -170 -151 -217l-635 -193q-58 -16 -86 -16q-88 0 -150.5 61.5t-62.5 147.5q0 74 46 129t118 76z" />
    <glyph glyph-name="egrave" unicode="&#xe8;" horiz-adv-x="2290" 
d="M778 840q63 -181 180 -262q126 -95 283 -95q176 0 340 82l172 86q43 22 115 29q64 0 125 -34t97 -92t36 -120q0 -169 -242 -307q-295 -168 -676 -168q-250 0 -472.5 98t-379.5 287q-225 273 -225 705q0 288 136.5 534t375 390.5t524.5 144.5q274 0 503 -136t359 -368
t130 -500q0 -143 -59.5 -208.5t-198.5 -65.5h-1123zM1569 1249q-96 377 -410 377q-277 0 -401 -377h811zM1388 2285l-634 193q-70 22 -111 80.5t-41 136.5t62.5 131t146.5 53q45 0 69 -8l644 -188q73 -22 118 -76.5t45 -128.5q0 -88 -62.5 -148.5t-150.5 -60.5q-28 0 -86 16
z" />
    <glyph glyph-name="ecircumflex" unicode="&#xea;" horiz-adv-x="2290" 
d="M778 840q63 -181 180 -262q126 -95 283 -95q176 0 340 82l172 86q43 22 115 29q64 0 125 -34t97 -92t36 -120q0 -169 -242 -307q-295 -168 -676 -168q-250 0 -472.5 98t-379.5 287q-225 273 -225 705q0 288 136.5 534t375 390.5t524.5 144.5q274 0 503 -136t359 -368
t130 -500q0 -143 -59.5 -208.5t-198.5 -65.5h-1123zM1569 1249q-96 377 -410 377q-277 0 -401 -377h811zM1146 2396l-462 -176q-58 -16 -86 -16q-82 0 -141.5 66.5t-59.5 150.5q0 59 39.5 110.5t95.5 69.5l533 197q48 16 77 16q13 0 40 -7.5t34 -8.5l520 -177
q160 -57 160 -196q0 -87 -64 -150t-149 -63q-17 0 -49 8z" />
    <glyph glyph-name="edieresis" unicode="&#xeb;" horiz-adv-x="2290" 
d="M778 840q63 -181 180 -262q126 -95 283 -95q176 0 340 82l172 86q43 22 115 29q64 0 125 -34t97 -92t36 -120q0 -169 -242 -307q-295 -168 -676 -168q-250 0 -472.5 98t-379.5 287q-225 273 -225 705q0 288 136.5 534t375 390.5t524.5 144.5q274 0 503 -136t359 -368
t130 -500q0 -143 -59.5 -208.5t-198.5 -65.5h-1123zM1569 1249q-96 377 -410 377q-277 0 -401 -377h811zM409 2560q0 123 88 213t211 90q81 0 150.5 -41.5t111 -111t41.5 -150.5q0 -123 -90 -211t-213 -88t-211 88t-88 211zM1298 2560q0 123 88 213t211 90t211 -90t88 -213
t-88 -211t-211 -88t-211 88t-88 211z" />
    <glyph glyph-name="iacute" unicode="&#xed;" horiz-adv-x="1171" 
d="M279 307v1462q0 142 80 237t219 95q140 0 221.5 -95t81.5 -237v-1462q0 -144 -80.5 -240t-222.5 -96q-137 0 -218 97.5t-81 238.5zM189 2675l643 188q24 8 69 8q82 0 142.5 -51.5t66.5 -132.5q0 -170 -151 -217l-635 -193q-58 -16 -86 -16q-88 0 -150.5 61.5t-62.5 147.5
q0 74 46 129t118 76z" />
    <glyph glyph-name="igrave" unicode="&#xec;" horiz-adv-x="1171" 
d="M279 307v1462q0 142 80 237t219 95q140 0 221.5 -95t81.5 -237v-1462q0 -144 -80.5 -240t-222.5 -96q-137 0 -218 97.5t-81 238.5zM811 2285l-634 193q-70 22 -111 80.5t-41 136.5t62.5 131t146.5 53q45 0 69 -8l644 -188q73 -22 118 -76.5t45 -128.5q0 -88 -62.5 -148.5
t-150.5 -60.5q-28 0 -86 16z" />
    <glyph glyph-name="icircumflex" unicode="&#xee;" horiz-adv-x="1171" 
d="M279 307v1462q0 142 80 237t219 95q140 0 221.5 -95t81.5 -237v-1462q0 -144 -80.5 -240t-222.5 -96q-137 0 -218 97.5t-81 238.5zM589 2388l-462 -176q-58 -16 -86 -16q-82 0 -141.5 66.5t-59.5 150.5q0 59 39.5 110.5t95.5 69.5l533 197q48 16 77 16q13 0 40 -7.5
t34 -8.5l520 -177q160 -57 160 -196q0 -87 -64 -150t-149 -63q-17 0 -49 8z" />
    <glyph glyph-name="idieresis" unicode="&#xef;" horiz-adv-x="1171" 
d="M279 307v1462q0 142 80 237t219 95q140 0 221.5 -95t81.5 -237v-1462q0 -144 -80.5 -240t-222.5 -96q-137 0 -218 97.5t-81 238.5zM-123 2552q0 123 88 213t211 90q81 0 150.5 -41.5t111 -111t41.5 -150.5q0 -123 -90 -211t-213 -88t-211 88t-88 211zM766 2552
q0 123 88 213t211 90t211 -90t88 -213t-88 -211t-211 -88t-211 88t-88 211z" />
    <glyph glyph-name="ntilde" unicode="&#xf1;" horiz-adv-x="2355" 
d="M823 1892q127 118 252.5 170t296.5 52q318 0 529 -181q126 -110 171.5 -246.5t45.5 -330.5v-1049q0 -144 -80.5 -240t-222.5 -96q-137 0 -218 97.5t-81 238.5v910q0 163 -91 271.5t-254 108.5q-93 0 -169 -50t-119 -131.5t-43 -174.5v-934q0 -144 -80.5 -240t-222.5 -96
q-137 0 -218 97.5t-81 238.5v1442q0 143 75.5 244.5t214.5 107.5q210 0 295 -209zM369 2425q0 176 130 292t312 122q196 0 352 -78l168 -86q74 -41 144 -41q53 0 81.5 24t57.5 74q55 111 164 111q85 0 147 -55.5t62 -137.5q0 -126 -69.5 -225t-182 -154t-232.5 -55
q-142 0 -340 98q-199 104 -282 111q-87 0 -127 -70l-45 -73q-46 -70 -144 -70q-87 0 -141.5 61t-54.5 152z" />
    <glyph glyph-name="oacute" unicode="&#xf3;" horiz-adv-x="2277" 
d="M131 1036q0 214 67.5 410.5t202.5 343.5q142 154 336.5 241t401.5 87q204 0 401 -87.5t336 -240.5q135 -149 200.5 -343t65.5 -411q0 -213 -65.5 -405.5t-200.5 -343.5q-138 -153 -333.5 -240.5t-399.5 -87.5q-209 0 -405.5 87t-336.5 241q-270 287 -270 749zM725 1036
q0 -122 46.5 -242t138 -197t216.5 -77q131 0 227.5 76t147.5 196t51 244q0 125 -50.5 246.5t-147.5 197.5t-228 76q-188 0 -294.5 -161.5t-106.5 -358.5zM758 2683l643 188q24 8 69 8q82 0 142.5 -51.5t66.5 -132.5q0 -170 -151 -217l-635 -193q-58 -16 -86 -16
q-88 0 -150.5 61.5t-62.5 147.5q0 74 46 129t118 76z" />
    <glyph glyph-name="ograve" unicode="&#xf2;" horiz-adv-x="2277" 
d="M131 1036q0 214 67.5 410.5t202.5 343.5q142 154 336.5 241t401.5 87q204 0 401 -87.5t336 -240.5q135 -149 200.5 -343t65.5 -411q0 -213 -65.5 -405.5t-200.5 -343.5q-138 -153 -333.5 -240.5t-399.5 -87.5q-209 0 -405.5 87t-336.5 241q-270 287 -270 749zM725 1036
q0 -122 46.5 -242t138 -197t216.5 -77q131 0 227.5 76t147.5 196t51 244q0 125 -50.5 246.5t-147.5 197.5t-228 76q-188 0 -294.5 -161.5t-106.5 -358.5zM1384 2285l-634 193q-70 22 -111 80.5t-41 136.5t62.5 131t146.5 53q45 0 69 -8l644 -188q73 -22 118 -76.5t45 -128.5
q0 -88 -62.5 -148.5t-150.5 -60.5q-28 0 -86 16z" />
    <glyph glyph-name="ocircumflex" unicode="&#xf4;" horiz-adv-x="2277" 
d="M131 1036q0 214 67.5 410.5t202.5 343.5q142 154 336.5 241t401.5 87q204 0 401 -87.5t336 -240.5q135 -149 200.5 -343t65.5 -411q0 -213 -65.5 -405.5t-200.5 -343.5q-138 -153 -333.5 -240.5t-399.5 -87.5q-209 0 -405.5 87t-336.5 241q-270 287 -270 749zM725 1036
q0 -122 46.5 -242t138 -197t216.5 -77q131 0 227.5 76t147.5 196t51 244q0 125 -50.5 246.5t-147.5 197.5t-228 76q-188 0 -294.5 -161.5t-106.5 -358.5zM1138 2396l-462 -176q-58 -16 -86 -16q-82 0 -141.5 66.5t-59.5 150.5q0 59 39.5 110.5t95.5 69.5l533 197
q48 16 77 16q13 0 40 -7.5t34 -8.5l520 -177q160 -57 160 -196q0 -87 -64 -150t-149 -63q-17 0 -49 8z" />
    <glyph glyph-name="odieresis" unicode="&#xf6;" horiz-adv-x="2277" 
d="M131 1036q0 214 67.5 410.5t202.5 343.5q142 154 336.5 241t401.5 87q204 0 401 -87.5t336 -240.5q135 -149 200.5 -343t65.5 -411q0 -213 -65.5 -405.5t-200.5 -343.5q-138 -153 -333.5 -240.5t-399.5 -87.5q-209 0 -405.5 87t-336.5 241q-270 287 -270 749zM725 1036
q0 -122 46.5 -242t138 -197t216.5 -77q131 0 227.5 76t147.5 196t51 244q0 125 -50.5 246.5t-147.5 197.5t-228 76q-188 0 -294.5 -161.5t-106.5 -358.5zM401 2560q0 123 88 213t211 90q81 0 150.5 -41.5t111 -111t41.5 -150.5q0 -123 -90 -211t-213 -88t-211 88t-88 211z
M1290 2560q0 123 88 213t211 90t211 -90t88 -213t-88 -211t-211 -88t-211 88t-88 211z" />
    <glyph glyph-name="otilde" unicode="&#xf5;" horiz-adv-x="2277" 
d="M131 1036q0 214 67.5 410.5t202.5 343.5q142 154 336.5 241t401.5 87q204 0 401 -87.5t336 -240.5q135 -149 200.5 -343t65.5 -411q0 -213 -65.5 -405.5t-200.5 -343.5q-138 -153 -333.5 -240.5t-399.5 -87.5q-209 0 -405.5 87t-336.5 241q-270 287 -270 749zM725 1036
q0 -122 46.5 -242t138 -197t216.5 -77q131 0 227.5 76t147.5 196t51 244q0 125 -50.5 246.5t-147.5 197.5t-228 76q-188 0 -294.5 -161.5t-106.5 -358.5zM332 2429q0 176 130 292t312 122q196 0 352 -78l168 -86q74 -41 144 -41q53 0 81.5 24t57.5 74q55 111 164 111
q85 0 147 -55.5t62 -137.5q0 -126 -69.5 -225t-182 -154t-232.5 -55q-142 0 -340 98q-199 104 -282 111q-87 0 -127 -70l-45 -73q-46 -70 -144 -70q-87 0 -141.5 61t-54.5 152z" />
    <glyph glyph-name="uacute" unicode="&#xfa;" horiz-adv-x="2343" 
d="M2105 1769v-958q0 -317 -147 -496q-134 -172 -345.5 -264t-441.5 -92q-227 0 -439.5 92.5t-346.5 263.5q-147 191 -147 496v958q0 142 80 237t219 95q140 0 221.5 -95t81.5 -237v-884q0 -170 94 -258q97 -99 237 -99q133 0 238 99q94 88 94 258v884q0 142 80.5 237
t222.5 95q139 0 219 -94.5t80 -237.5zM791 2683l643 188q24 8 69 8q82 0 142.5 -51.5t66.5 -132.5q0 -170 -151 -217l-635 -193q-58 -16 -86 -16q-88 0 -150.5 61.5t-62.5 147.5q0 74 46 129t118 76z" />
    <glyph glyph-name="ugrave" unicode="&#xf9;" horiz-adv-x="2343" 
d="M2105 1769v-958q0 -317 -147 -496q-134 -172 -345.5 -264t-441.5 -92q-227 0 -439.5 92.5t-346.5 263.5q-147 191 -147 496v958q0 142 80 237t219 95q140 0 221.5 -95t81.5 -237v-884q0 -170 94 -258q97 -99 237 -99q133 0 238 99q94 88 94 258v884q0 142 80.5 237
t222.5 95q139 0 219 -94.5t80 -237.5zM1417 2285l-634 193q-70 22 -111 80.5t-41 136.5t62.5 131t146.5 53q45 0 69 -8l644 -188q73 -22 118 -76.5t45 -128.5q0 -88 -62.5 -148.5t-150.5 -60.5q-28 0 -86 16z" />
    <glyph glyph-name="ucircumflex" unicode="&#xfb;" horiz-adv-x="2343" 
d="M2105 1769v-958q0 -317 -147 -496q-134 -172 -345.5 -264t-441.5 -92q-227 0 -439.5 92.5t-346.5 263.5q-147 191 -147 496v958q0 142 80 237t219 95q140 0 221.5 -95t81.5 -237v-884q0 -170 94 -258q97 -99 237 -99q133 0 238 99q94 88 94 258v884q0 142 80.5 237
t222.5 95q139 0 219 -94.5t80 -237.5zM1171 2396l-462 -176q-58 -16 -86 -16q-82 0 -141.5 66.5t-59.5 150.5q0 59 39.5 110.5t95.5 69.5l533 197q48 16 77 16q13 0 40 -7.5t34 -8.5l520 -177q160 -57 160 -196q0 -87 -64 -150t-149 -63q-17 0 -49 8z" />
    <glyph glyph-name="udieresis" unicode="&#xfc;" horiz-adv-x="2343" 
d="M2105 1769v-958q0 -317 -147 -496q-134 -172 -345.5 -264t-441.5 -92q-227 0 -439.5 92.5t-346.5 263.5q-147 191 -147 496v958q0 142 80 237t219 95q140 0 221.5 -95t81.5 -237v-884q0 -170 94 -258q97 -99 237 -99q133 0 238 99q94 88 94 258v884q0 142 80.5 237
t222.5 95q139 0 219 -94.5t80 -237.5zM434 2564q0 123 88 213t211 90q81 0 150.5 -41.5t111 -111t41.5 -150.5q0 -123 -90 -211t-213 -88t-211 88t-88 211zM1323 2564q0 123 88 213t211 90t211 -90t88 -213t-88 -211t-211 -88t-211 88t-88 211z" />
    <glyph glyph-name="dagger" unicode="&#x2020;" horiz-adv-x="2306" 
d="M1425 1405v-1663q0 -130 -73 -216.5t-201 -86.5q-126 0 -200 87.5t-74 215.5v1663h-406q-129 0 -216 72.5t-87 201.5q0 125 87.5 198t215.5 73h406v544q0 128 74 216t200 88q128 0 201 -87.5t73 -216.5v-544h406q129 0 216 -72t87 -199q0 -126 -87.5 -200t-215.5 -74
h-406z" />
    <glyph glyph-name="degree" unicode="&#xb0;" 
d="M1737 2093q0 -175 -90 -322.5t-243 -234t-327 -86.5q-162 0 -311.5 85.5t-240.5 231t-91 310.5q0 185 84 340.5t234 245.5t333 90q177 0 328 -88.5t237.5 -240.5t86.5 -331zM1479 2097q0 164 -115 285t-279 121q-110 0 -201.5 -57.5t-143.5 -155t-52 -205.5
q0 -153 119 -269t270 -116q163 0 282.5 117t119.5 280z" />
    <glyph glyph-name="cent" unicode="&#xa2;" horiz-adv-x="2306" 
d="M1516 2433q512 -105 512 -360q0 -121 -70.5 -214.5t-183.5 -93.5q-40 0 -113.5 25t-112.5 41q-135 37 -221 37q-199 0 -318.5 -155t-119.5 -361q0 -211 125.5 -361.5t333.5 -150.5q66 0 225 45q30 15 89.5 38t115.5 23q96 0 168.5 -78t72.5 -176q0 -125 -76 -206
t-175 -120t-252 -79v-189q0 -97 -55.5 -163t-149.5 -66q-92 0 -148.5 67t-56.5 162v189q-387 75 -607 365.5t-220 690.5q0 176 44.5 342t134.5 311t222 249q154 123 426 188v168q0 96 55 162.5t150 66.5q93 0 149 -66t56 -163v-168z" />
    <glyph glyph-name="sterling" unicode="&#xa3;" horiz-adv-x="2855" 
d="M1286 578h1020q135 0 227.5 -76t92.5 -211q0 -89 -42.5 -155.5t-116.5 -101t-161 -34.5h-1475q-352 0 -352 315q0 117 94 226q111 139 154 251t68 298h-250q-144 0 -234 76.5t-90 213.5q0 139 88 217t236 78h123q-74 208 -74 357q0 241 152 415t385 262.5t466 88.5
q432 0 725 -197q280 -188 291 -451q0 -138 -94 -234.5t-229 -96.5q-93 0 -157 52t-130 148q-75 117 -167 169.5t-230 52.5q-125 0 -224.5 -85t-99.5 -210q0 -99 90 -271h295q142 0 235 -78t93 -217q0 -131 -97 -210.5t-231 -79.5h-221q0 -209 -160 -512z" />
    <glyph glyph-name="section" unicode="&#xa7;" horiz-adv-x="2175" 
d="M1737 573q188 -174 188 -430q0 -159 -77.5 -288t-206 -218t-284 -135.5t-304.5 -46.5q-339 0 -578 160q-233 160 -233 389q0 93 65 160.5t156 73.5q119 0 180 -66l78 -82q133 -139 323 -139q106 0 196.5 48t90.5 148q-8 85 -69 124.5t-185 88.5l-258 111
q-210 86 -354 170.5t-239 220t-95 330.5q0 301 299 569q-119 169 -119 373q0 207 125 359t320 230.5t399 78.5q164 0 352 -60.5t315.5 -181t127.5 -287.5q0 -103 -70 -182.5t-168 -79.5q-113 0 -180 86l-62 78q-102 143 -311 143q-90 0 -170 -37.5t-80 -117.5
q0 -85 55.5 -123t194.5 -103l164 -69q233 -99 336.5 -149.5t200.5 -141.5q184 -173 184 -422q0 -297 -307 -582zM795 1470q-107 -83 -107 -176q0 -82 59 -127.5t179 -101.5q104 -49 272.5 -129.5t181.5 -87.5q103 112 103 188q0 58 -38.5 104t-93.5 76.5t-123 56.5t-110 42
q-170 70 -323 155z" />
    <glyph glyph-name="bullet" unicode="&#x2022;" horiz-adv-x="2855" 
d="M1430 1962q153 0 281.5 -78.5t204 -210.5t75.5 -280q0 -150 -75.5 -283.5t-204 -212t-281.5 -78.5t-283 77.5t-206.5 210t-76.5 286.5q0 233 166 401t400 168z" />
    <glyph glyph-name="paragraph" unicode="&#xb6;" horiz-adv-x="2695" 
d="M1077 -324v1635h-57q-204 0 -373 87.5t-264.5 248t-95.5 368.5q0 193 88.5 359.5t251.5 251.5q195 106 585 106h906q73 0 114 -36t41 -87q0 -50 -40 -84.5t-115 -34.5h-58v-2814q0 -65 -46 -100t-109 -35q-64 0 -110 35.5t-46 99.5v2814h-356v-2814q0 -58 -46 -90
t-110 -32q-66 0 -113 32.5t-47 89.5z" />
    <glyph glyph-name="germandbls" unicode="&#xdf;" horiz-adv-x="2367" 
d="M1757 1659q208 -71 332 -246q147 -208 147 -475q0 -382 -254 -668q-276 -311 -634 -311q-154 0 -253.5 71t-99.5 216q0 128 95 205q39 30 188 69q160 43 246 161.5t86 285.5q0 144 -81 234t-226 118q-109 23 -159 39.5t-100 62.5q-73 74 -73 197q0 116 53 176t168 94
q238 63 238 275q0 83 -41 146.5t-110.5 99.5t-148.5 36q-69 0 -133.5 -36t-99.5 -95q-57 -98 -57 -327v-1680q0 -142 -80.5 -239t-222.5 -97q-137 0 -218 97.5t-81 238.5v1757q0 433 262 689q123 120 290.5 184.5t348.5 64.5q384 0 630 -229q115 -107 182.5 -250.5
t67.5 -294.5q0 -197 -57 -323t-205 -246z" />
    <glyph glyph-name="registered" unicode="&#xae;" horiz-adv-x="3269" 
d="M1642 2785q382 0 706.5 -193.5t514 -521t189.5 -706.5q0 -285 -108.5 -542.5t-304.5 -456.5t-453 -310.5t-544 -111.5q-384 0 -712 191.5t-520.5 519t-192.5 710.5q0 385 192 712.5t519.5 518t713.5 190.5zM1638 2511q-305 0 -563.5 -155.5t-408.5 -420.5t-150 -571
q0 -305 150.5 -569t408.5 -419t563 -155q304 0 559.5 157t403 420.5t147.5 565.5t-147.5 567t-403.5 422.5t-559 157.5zM1438 1237v-475q-3 -92 -51.5 -150.5t-133.5 -58.5q-87 0 -137.5 59t-50.5 150v1212q0 108 58 167t167 59h373q252 0 401 -127q168 -135 168 -361
q0 -224 -127 -344q-87 -82 -254 -119l316 -348q71 -71 86 -131q0 -91 -42.5 -149.5t-105.5 -67.5q-125 0 -188 82zM1438 1499h229q85 0 143 50t58 134q0 81 -63 137t-146 56h-221v-377z" />
    <glyph glyph-name="copyright" unicode="&#xa9;" horiz-adv-x="3269" 
d="M1642 2785q382 0 706.5 -193.5t514 -521t189.5 -706.5q0 -285 -108.5 -542.5t-304.5 -456.5t-453 -310.5t-544 -111.5q-384 0 -712 191.5t-520.5 519t-192.5 710.5q0 385 192 712.5t519.5 518t713.5 190.5zM1638 2511q-305 0 -563.5 -155.5t-408.5 -420.5t-150 -571
q0 -305 150.5 -569t408.5 -419t563 -155q304 0 559.5 157t403 420.5t147.5 565.5q0 304 -147 568t-403 421.5t-560 157.5zM901 1421q0 228 102 411t284 285.5t413 102.5q161 0 312 -54t167 -184q0 -82 -38.5 -133t-104.5 -51q-34 0 -140 37q-100 41 -188 41
q-204 0 -309 -140.5t-105 -355.5q0 -271 140 -405q108 -103 270 -103q77 0 147 25l111 53q53 17 74 17q72 0 115.5 -52.5t43.5 -123.5q0 -104 -114 -173q-160 -90 -393 -90q-320 0 -541 209q-246 235 -246 684z" />
    <glyph glyph-name="trademark" unicode="&#x2122;" horiz-adv-x="3564" 
d="M881 2376v-1086q0 -95 -60 -158t-153 -63q-90 0 -149.5 64t-59.5 157v1086h-217q-86 0 -147.5 48t-61.5 128q0 81 61.5 130.5t147.5 49.5h848q83 0 143.5 -47t60.5 -133q0 -82 -61 -129t-148 -47h-204zM1909 1991l-123 -734q-9 -60 -71.5 -122t-174.5 -62
q-81 0 -126.5 69t-45.5 181l209 1212q15 98 88 160t174 62q219 0 270 -168l271 -783l246 750q30 88 102.5 144.5t163.5 56.5q99 0 181.5 -56t96.5 -149q14 -76 37.5 -199t67 -358t82.5 -450.5t39 -221.5q0 -250 -172 -250q-218 0 -246 184l-127 734l-217 -693
q-35 -119 -84.5 -174t-157.5 -55q-175 0 -233 184z" />
    <glyph glyph-name="acute" unicode="&#xb4;" 
d="M709 2679l643 188q24 8 69 8q82 0 142.5 -51.5t66.5 -132.5q0 -170 -151 -217l-635 -193q-58 -16 -86 -16q-88 0 -150.5 61.5t-62.5 147.5q0 74 46 129t118 76z" />
    <glyph glyph-name="dieresis" unicode="&#xa8;" 
d="M348 2560q0 123 88 213t211 90q81 0 150.5 -41.5t111 -111t41.5 -150.5q0 -123 -90 -211t-213 -88t-211 88t-88 211zM1237 2560q0 123 88 213t211 90t211 -90t88 -213t-88 -211t-211 -88t-211 88t-88 211z" />
    <glyph glyph-name="AE" unicode="&#xc6;" horiz-adv-x="3355" 
d="M2204 2171v-508h606q135 0 223 -73.5t88 -205.5q0 -127 -90 -202.5t-221 -75.5h-606v-545h671q133 0 222.5 -74t89.5 -204q0 -131 -90.5 -207t-221.5 -76h-905q-229 0 -344 172q-49 86 -49 295h-713l-94 -234q-101 -249 -278 -274q-133 0 -229.5 75.5t-102.5 190.5
q0 93 37 181l917 2113q8 23 59.5 75.5t128 95t156.5 42.5h1417q133 0 222.5 -74t89.5 -204q0 -131 -90.5 -207t-221.5 -76h-671zM1577 1024v1114l-471 -1114h471z" />
    <glyph glyph-name="Oslash" unicode="&#xd8;" horiz-adv-x="2966" 
d="M2183 2613l103 123q55 69 105 86t140 17q79 0 140 -70t61 -160q0 -17 -8 -49q-7 -46 -70 -131l-102 -127q130 -187 184 -336q98 -266 98 -532q0 -690 -368 -1086q-384 -414 -979 -414q-196 0 -359 50t-370 159l-82 -102q-89 -107 -242 -107q-90 0 -145.5 87t-55.5 192
q0 56 66 135l107 127q-149 204 -205 377q-74 230 -74 561q0 383 169.5 702t475 503t690.5 184q389 0 721 -189zM1139 586q167 -94 344 -94q160 0 306.5 68.5t238.5 193.5q176 236 176 671q0 163 -70 373zM1806 2159q-139 82 -331 82q-137 0 -265 -49t-219 -140
q-237 -231 -237 -647q0 -245 69 -426z" />
    <glyph glyph-name="plusminus" unicode="&#xb1;" 
d="M94 1647h828v819h319v-819h832v-308h-832v-790h-319v790h-828v308zM94 385h1979v-307h-1979v307z" />
    <glyph glyph-name="yen" unicode="&#xa5;" horiz-adv-x="2765" 
d="M1040 0v913h-827v254h745l-237 406h-574v246h439l-520 901h716l594 -1151l594 1163h729l-528 -913h438v-246h-577l-238 -406h762v-254h-844v-913h-672z" />
    <glyph glyph-name="mu" unicode="&#xb5;" horiz-adv-x="2535" 
d="M295 -700v2662h602v-1016q0 -120 11.5 -199t54.5 -149q112 -172 311 -172q201 0 282.5 157.5t81.5 379.5v999h603v-1962h-603v262q-121 -299 -368 -299q-241 0 -373 238v-901h-602z" />
    <glyph glyph-name="ordfeminine" unicode="&#xaa;" horiz-adv-x="1544" 
d="M344 1491h868q89 0 145 -37.5t56 -110.5t-57 -114t-144 -41h-868q-86 3 -143.5 42.5t-57.5 112.5q0 69 58.5 108.5t142.5 39.5zM995 1765q-65 -75 -125.5 -107t-152.5 -32q-181 0 -328 127q-196 179 -196 475q0 271 172 443q158 151 344 151q161 0 286 -131
q51 123 160 123q74 0 123 -48t49 -120v-815q0 -80 -47 -138.5t-125 -58.5q-113 0 -160 131zM524 2232q0 -116 55 -202t166 -93q109 0 173.5 83.5t64.5 195.5q0 130 -58.5 214.5t-179.5 84.5q-103 0 -162 -89t-59 -194z" />
    <glyph glyph-name="ordmasculine" unicode="&#xba;" horiz-adv-x="1544" 
d="M344 1491h868q89 0 145 -37.5t56 -110.5t-57 -114t-144 -41h-868q-86 3 -143.5 42.5t-57.5 112.5q0 69 58.5 108.5t142.5 39.5zM197 2232q0 264 151 426q79 88 188 138.5t226 50.5q249 0 418 -189q151 -169 151 -426q0 -252 -151 -422q-76 -88 -187 -138t-227 -50
t-228 49.5t-190 138.5q-151 158 -151 422zM528 2232q0 -109 62.5 -199.5t167.5 -90.5q109 0 173 89t64 201q0 116 -64 205.5t-173 89.5q-105 0 -167.5 -93.5t-62.5 -201.5z" />
    <glyph glyph-name="ae" unicode="&#xe6;" horiz-adv-x="3674" 
d="M2150 864q79 -200 217 -274q124 -70 279 -70q161 0 299 53l164 62q74 24 119 24q121 0 201.5 -69.5t80.5 -175.5q0 -150 -156 -253.5t-367 -152.5t-353 -49q-179 0 -348 49q-103 31 -242 148q-5 -185 -246 -185q-118 0 -170.5 62t-58.5 184q-114 -142 -226 -188
q-151 -70 -331 -70q-170 0 -341 87t-286 224q-123 148 -190.5 364t-67.5 423q0 205 71 404.5t203 348.5q126 140 299.5 224t352.5 84t294.5 -51t229.5 -183q6 217 225 217q100 0 157.5 -29t84.5 -114q210 160 491 160q200 0 383.5 -86t323.5 -232.5t220.5 -334.5t80.5 -388
q0 -125 -74.5 -169t-212.5 -44h-1106zM2945 1266q-103 376 -410 376q-150 0 -270 -118q-91 -91 -127 -258h807zM729 1028q0 -213 102 -356q124 -152 287 -152q212 0 321 160t109 381q0 137 -46 249t-139 179t-228 67q-134 0 -226 -77.5t-136 -200t-44 -250.5z" />
    <glyph glyph-name="oslash" unicode="&#xf8;" horiz-adv-x="2490" 
d="M1823 1966l28 29q63 69 112 98t130 29q89 0 149 -74t60 -188q0 -44 -30 -84.5t-81 -96.5l-45 -49q148 -263 148 -569q0 -500 -299 -799q-141 -144 -333.5 -223.5t-391.5 -79.5q-305 0 -541 160l-57 -66q-87 -86 -242 -86q-74 0 -127 69.5t-53 151.5q0 24 8 58
q15 61 74 127l74 82q-148 299 -148 589q0 214 77.5 408.5t220 345.5t333 235.5t405.5 84.5q257 0 529 -152zM1098 512q87 -41 164 -41q155 0 264 78t164 209t55 282q0 26 -5 75t-7 73zM1438 1556q-95 41 -181 41q-191 0 -327 -172q-123 -160 -123 -421q0 -18 2 -56t2 -59z
" />
    <glyph glyph-name="questiondown" unicode="&#xbf;" horiz-adv-x="2101" 
d="M1450 2462q0 -135 -99.5 -233.5t-236.5 -98.5q-135 0 -233.5 98.5t-98.5 233.5q0 138 98 237t234 99q138 0 237 -99t99 -237zM811 1597q0 152 41 234q37 69 108.5 110t149.5 41q139 0 221 -96.5t82 -238.5v-258q0 -131 -59.5 -184.5t-198.5 -78.5q-348 -53 -348 -327
q0 -116 94.5 -187t212.5 -71q167 0 303 188q126 172 258 172q127 0 211 -85t84 -214q0 -152 -80.5 -277t-213.5 -213.5t-288 -135t-298 -46.5q-243 0 -465.5 104.5t-358 296.5t-135.5 443q0 320 181 536t499 287z" />
    <glyph glyph-name="exclamdown" unicode="&#xa1;" horiz-adv-x="1176" 
d="M254 2462q0 138 99 237t237 99q135 0 233.5 -99.5t98.5 -236.5q0 -134 -99 -233t-233 -99q-137 0 -236.5 98.5t-99.5 233.5zM913 1585v-1319q0 -146 -78.5 -241t-220.5 -95q-93 0 -161 45.5t-103 122.5t-35 168v1319q0 141 79 236.5t220 95.5q139 0 219 -95t80 -237z" />
    <glyph glyph-name="logicalnot" unicode="&#xac;" 
d="M1331 0v623h-1134v573h1773v-1196h-639z" />
    <glyph glyph-name="florin" unicode="&#x192;" horiz-adv-x="2306" 
d="M913 1786h-86q-127 0 -215 74t-88 200q0 128 88 201.5t215 73.5h185l49 295q30 185 134 329t261.5 222.5t341.5 78.5q406 0 406 -270q0 -124 -78 -197t-217 -73l-62 4q-171 0 -196 -160l-41 -229h168q129 0 216 -73.5t87 -201.5q0 -126 -87.5 -200t-215.5 -74h-262
l-287 -1634q-32 -184 -136.5 -343t-265.5 -256.5t-348 -97.5q-377 0 -377 271q0 110 61.5 185.5t168.5 84.5l61 4q209 18 242 209z" />
    <glyph glyph-name="guillemotleft" unicode="&#xab;" horiz-adv-x="2470" 
d="M725 1110l393 -401q82 -90 82 -189q0 -106 -63.5 -186t-165.5 -80q-142 0 -238 123l-344 479q-102 142 -102 254q0 116 102 258l344 475q96 123 238 123q98 0 163.5 -79t65.5 -183q0 -106 -82 -188zM1708 1110l393 -401q82 -90 82 -189q0 -104 -65.5 -185t-163.5 -81
q-142 0 -238 123l-344 479q-102 142 -102 254q0 116 102 258l344 475q96 123 238 123q98 0 163.5 -79t65.5 -183q0 -106 -82 -188z" />
    <glyph glyph-name="guillemotright" unicode="&#xbb;" horiz-adv-x="2470" 
d="M1745 1110l-393 406q-82 82 -82 188q0 102 65.5 182t163.5 80q148 0 238 -123l344 -475q102 -132 102 -258q0 -122 -102 -254l-344 -479q-90 -123 -238 -123q-98 0 -163.5 82t-65.5 184q0 99 82 189zM762 1110l-393 406q-82 80 -82 188q0 102 65.5 182t163.5 80
q148 0 238 -123l344 -475q102 -132 102 -258q0 -122 -102 -254l-344 -479q-90 -123 -238 -123q-98 0 -163.5 82t-65.5 184q0 100 82 189z" />
    <glyph glyph-name="ellipsis" unicode="&#x2026;" horiz-adv-x="3400" 
d="M274 266q0 135 99.5 233.5t236.5 98.5q88 0 164.5 -45t122 -122.5t45.5 -164.5q0 -137 -97.5 -236.5t-234.5 -99.5q-138 0 -237 99t-99 237zM1368 266q0 135 98.5 233.5t233.5 98.5q137 0 236.5 -98.5t99.5 -233.5q0 -138 -99 -237t-237 -99q-136 0 -234 99t-98 237z
M2458 266q0 134 99 233t236 99q88 0 164.5 -45t122 -122.5t45.5 -164.5q0 -137 -97.5 -236.5t-234.5 -99.5q-138 0 -236.5 99.5t-98.5 236.5z" />
    <glyph glyph-name="nonbreakingspace" unicode="&#xa0;" horiz-adv-x="1151" 
 />
    <glyph glyph-name="Agrave" unicode="&#xc0;" horiz-adv-x="2609" 
d="M1839 520h-1048l-66 -237q-86 -324 -279 -324q-132 0 -235 64.5t-121 185.5q0 128 25 197l737 2027q57 158 179.5 255t283.5 97t283.5 -96t179.5 -256l737 -2027q25 -72 25 -197q-14 -120 -117.5 -185t-239.5 -65q-89 0 -159 78t-99 180zM1651 1081l-332 1041l-332 -1041
h664zM1556 2961l-634 193q-70 22 -111 80.5t-41 136.5t62.5 131t146.5 53q45 0 69 -8l644 -188q73 -22 118 -76.5t45 -128.5q0 -88 -62.5 -148.5t-150.5 -60.5q-28 0 -86 16z" />
    <glyph glyph-name="Atilde" unicode="&#xc3;" horiz-adv-x="2609" 
d="M1839 520h-1048l-66 -237q-86 -324 -279 -324q-132 0 -235 64.5t-121 185.5q0 128 25 197l737 2027q57 158 179.5 255t283.5 97t283.5 -96t179.5 -256l737 -2027q25 -72 25 -197q-14 -120 -117.5 -185t-239.5 -65q-89 0 -159 78t-99 180zM1651 1081l-332 1041l-332 -1041
h664zM508 3150q0 176 130 292t312 122q196 0 352 -78l168 -86q74 -41 144 -41q53 0 81.5 24t57.5 74q55 111 164 111q85 0 147 -55.5t62 -137.5q0 -126 -69.5 -225t-182 -154t-232.5 -55q-142 0 -340 98q-199 104 -282 111q-87 0 -127 -70l-45 -73q-46 -70 -144 -70
q-87 0 -141.5 61t-54.5 152z" />
    <glyph glyph-name="Otilde" unicode="&#xd5;" horiz-adv-x="2961" 
d="M131 1384q0 316 111.5 597t335.5 481q372 336 901 336q304 0 553.5 -106.5t428.5 -299.5t274 -451t95 -557q0 -332 -110.5 -626t-339.5 -500q-180 -164 -410.5 -246t-486.5 -82q-282 0 -537 102t-442 300q-373 394 -373 1052zM799 1380q0 -222 72.5 -426.5t226.5 -333
t385 -128.5q235 0 387.5 126t222.5 327.5t70 434.5q0 223 -74 420t-229.5 316.5t-384.5 119.5q-132 0 -257.5 -59t-213.5 -158q-205 -232 -205 -639zM672 3150q0 176 130 292t312 122q196 0 352 -78l168 -86q74 -41 144 -41q53 0 81.5 24t57.5 74q55 111 164 111
q85 0 147 -55.5t62 -137.5q0 -126 -69.5 -225t-182 -154t-232.5 -55q-142 0 -340 98q-199 104 -282 111q-87 0 -127 -70l-45 -73q-46 -70 -144 -70q-87 0 -141.5 61t-54.5 152z" />
    <glyph glyph-name="OE" unicode="&#x152;" horiz-adv-x="3957" 
d="M2785 2171v-516h606q136 0 224 -74.5t88 -208.5q0 -127 -89 -202.5t-223 -75.5h-606v-537h688q133 0 222.5 -74t89.5 -204t-90 -204.5t-222 -74.5h-1028q-115 0 -170 32.5t-55 139.5q-175 -128 -366 -185t-420 -57q-260 0 -510 96t-424 273q-198 205 -285.5 488.5
t-87.5 601.5q0 293 108 572.5t310 475.5q115 112 262.5 193.5t310 124.5t324.5 43q257 0 427.5 -56.5t350.5 -210.5q6 111 51 154t158 43h1044q133 0 222.5 -74.5t89.5 -204.5q0 -129 -90 -203.5t-222 -74.5h-688zM807 1368q0 -407 176 -635q92 -115 223.5 -178t272.5 -63
q226 0 381 125t229 326t74 421t-74 421t-229 326t-381 125q-144 0 -275 -63.5t-221 -177.5q-176 -235 -176 -627z" />
    <glyph glyph-name="oe" unicode="&#x153;" horiz-adv-x="3682" 
d="M2167 868q41 -187 172 -266q135 -82 315 -82q156 0 303 58l164 61q77 25 119 29q117 0 193.5 -74.5t76.5 -179.5q0 -163 -164 -265t-381 -146t-372 -44q-451 0 -758 295q-319 -295 -721 -295q-222 0 -404.5 86.5t-312.5 239t-198 350t-68 409.5q0 443 258 738
q133 155 327.5 245.5t397.5 90.5q225 0 398.5 -68t347.5 -215q277 283 671 283q272 0 490.5 -120.5t353.5 -350.5q64 -107 120 -294t56 -341q-19 -144 -250 -144h-1134zM2961 1262q-98 376 -397 376q-292 0 -414 -376h811zM733 1032q0 -194 106 -353t291 -159
q198 0 310 160.5t112 363.5q0 200 -116 356t-314 156q-190 0 -289.5 -159t-99.5 -365z" />
    <glyph glyph-name="emdash" unicode="&#x2013;" horiz-adv-x="2200" 
d="M487 1384h1229q125 0 206 -66.5t81 -187.5q0 -118 -82.5 -188t-204.5 -70h-1229q-121 0 -203.5 69t-82.5 189q0 119 82 186.5t204 67.5z" />
    <glyph glyph-name="endash" unicode="&#x2014;" horiz-adv-x="2425" 
d="M-33 1384h2487q124 0 205 -66.5t81 -187.5q0 -118 -82.5 -188t-203.5 -70h-2487q-121 0 -203.5 69t-82.5 189q0 119 82 186.5t204 67.5z" />
    <glyph glyph-name="quotedblleft" unicode="&#x201c;" horiz-adv-x="2003" 
d="M590 2671l319 -574q33 -54 33 -127q0 -101 -82.5 -173.5t-183.5 -72.5q-144 0 -209 123l-332 574q-33 61 -33 114q0 110 79.5 188.5t187.5 78.5q149 0 221 -131zM1462 2671l324 -574q29 -59 29 -127q0 -101 -81.5 -173.5t-181.5 -72.5q-142 0 -213 123l-331 574
q-28 60 -33 114q0 111 80 189t190 78q145 0 217 -131z" />
    <glyph glyph-name="quotedblright" unicode="&#x201d;" horiz-adv-x="2003" 
d="M180 2101l332 578q68 123 209 123q100 0 183 -74t83 -172q0 -73 -33 -127l-319 -578q-74 -127 -221 -127q-108 0 -187.5 78.5t-79.5 188.5q0 56 33 110zM1053 2101l331 578q76 123 213 123q101 0 182 -73.5t81 -172.5q0 -68 -29 -127l-324 -578q-74 -127 -217 -127
q-110 0 -190 78t-80 189q6 57 33 110z" />
    <glyph glyph-name="quoteleft" unicode="&#x2018;" horiz-adv-x="1126" 
d="M618 2671l320 -574q33 -54 33 -127q0 -101 -82.5 -173.5t-183.5 -72.5q-144 0 -209 123l-332 574q-33 58 -33 114q0 110 79.5 188.5t186.5 78.5q149 0 221 -131z" />
    <glyph glyph-name="quoteright" unicode="&#x2019;" horiz-adv-x="1126" 
d="M205 2101l332 578q68 123 208 123q101 0 184 -74t83 -172q0 -73 -33 -127l-320 -578q-74 -127 -221 -127q-107 0 -186.5 78.5t-79.5 188.5q0 58 33 110z" />
    <glyph glyph-name="divide" unicode="&#xf7;" 
d="M94 1630h1979v-307h-1979v307zM1085 2413q94 0 164 -70t70 -164q0 -95 -70 -164t-164 -69q-95 0 -166 69t-71 164q0 94 70 164t167 70zM1081 1008q98 0 168 -70t70 -168q0 -95 -71.5 -164t-166.5 -69q-62 0 -116 31.5t-85.5 85.5t-31.5 116q0 97 68.5 167.5t164.5 70.5z
" />
    <glyph glyph-name="ydieresis" unicode="&#xff;" horiz-adv-x="2159" 
d="M1077 934l353 885q52 132 114.5 209t163.5 77q80 0 162 -32.5t134 -93.5t52 -140q0 -105 -33 -188l-970 -2310q-86 -213 -254 -213q-124 0 -225.5 72.5t-110.5 189.5q0 84 37 184l262 614l-619 1467q-37 94 -37 188q0 117 107.5 189.5t237.5 72.5q103 0 163 -76t111 -206
zM348 2564q0 123 88 213t211 90q81 0 150.5 -41.5t111 -111t41.5 -150.5q0 -123 -90 -211t-213 -88t-211 88t-88 211zM1237 2564q0 123 88 213t211 90t211 -90t88 -213t-88 -211t-211 -88t-211 88t-88 211z" />
    <glyph glyph-name="Ydieresis" unicode="&#x178;" horiz-adv-x="2482" 
d="M1565 1290v-983q0 -148 -83.5 -248t-232.5 -100q-143 0 -227 100.5t-84 247.5v983l-659 901q-17 25 -50.5 71t-51 85.5t-17.5 81.5q0 131 82 235.5t200 104.5q195 0 308 -164l499 -721l529 729q109 160 311 160q120 0 199 -99t79 -233q0 -93 -122 -254zM528 3244
q0 123 88 213t211 90q81 0 150.5 -41.5t111 -111t41.5 -150.5q0 -123 -90 -211t-213 -88t-211 88t-88 211zM1417 3244q0 123 88 213t211 90t211 -90t88 -213t-88 -211t-211 -88t-211 88t-88 211z" />
    <glyph glyph-name="fraction" unicode="&#x2044;" horiz-adv-x="1393" 
d="M33 254l958 2404q58 140 160 140q83 0 150 -44.5t75 -119.5q0 -73 -20 -119l-979 -2445q-56 -144 -160 -144q-80 0 -147.5 46.5t-73.5 121.5q0 67 37 160z" />
    <glyph glyph-name="currency" unicode="&#x20ac;" horiz-adv-x="3060" 
d="M225 442l414 414q-147 256 -147 541q0 239 159 536l-426 422l340 340l430 -434q300 156 553 156q211 0 508 -152l430 426l332 -336l-414 -418q164 -270 164 -544q0 -246 -147 -533l413 -418l-331 -336l-414 414q-273 -168 -565 -168q-250 0 -549 164l-414 -410z
M1532 1864q-195 0 -333 -138t-138 -333q0 -126 63.5 -234t173 -172.5t234.5 -64.5q126 0 233.5 64t170.5 173t63 234q0 194 -137.5 332.5t-329.5 138.5z" />
    <glyph glyph-name="guilsinglleft" unicode="&#x2039;" horiz-adv-x="1487" 
d="M725 1110l393 -401q82 -90 82 -189q0 -104 -65.5 -185t-163.5 -81q-142 0 -238 123l-344 479q-102 142 -102 254q0 116 102 258l344 475q96 123 238 123q98 0 163.5 -79t65.5 -183q0 -106 -82 -188z" />
    <glyph glyph-name="guilsinglright" unicode="&#x203a;" horiz-adv-x="1487" 
d="M762 1110l-393 406q-82 80 -82 188q0 102 65.5 182t163.5 80q148 0 238 -123l344 -475q102 -132 102 -258q0 -122 -102 -254l-344 -479q-90 -123 -238 -123q-98 0 -163.5 82t-65.5 184q0 100 82 189z" />
    <glyph glyph-name="fi" unicode="&#xfb01;" horiz-adv-x="2630" 
d="M1053 1511v-1204q0 -144 -79.5 -240t-219.5 -96q-139 0 -221 97.5t-82 238.5v1204h-86q-131 0 -217.5 72t-86.5 203q0 270 304 270h86v299q0 294 200 471q179 160 426 160q377 0 377 -270q0 -111 -62 -185.5t-171 -81.5q-90 -6 -129 -40t-39 -123v-230h168q133 0 218 -71
t85 -199t-86 -201.5t-217 -73.5h-168zM1700 2650q0 143 102.5 247.5t245.5 104.5q140 0 244 -105t104 -247q0 -141 -103.5 -246.5t-244.5 -105.5q-143 0 -245.5 105t-102.5 247zM1741 307v1462q0 142 80 237t219 95q140 0 221.5 -95t81.5 -237v-1462q0 -144 -80.5 -240
t-222.5 -96q-94 0 -161 45t-102.5 123t-35.5 168z" />
    <glyph glyph-name="fl" unicode="&#xfb02;" horiz-adv-x="2540" 
d="M1053 1511v-1204q0 -144 -79.5 -240t-219.5 -96q-142 0 -222.5 92t-80.5 244v1204h-86q-136 0 -220 71.5t-84 203.5q0 126 85 198t219 72h86v299q0 294 200 471q179 160 426 160q377 0 377 -270q0 -111 -62 -185.5t-171 -81.5q-90 -6 -129 -40t-39 -123v-230h168
q303 0 303 -270q0 -129 -84 -202t-219 -73h-168zM2298 2671v-2364q0 -151 -77.5 -243.5t-221.5 -92.5q-138 0 -218.5 98.5t-80.5 237.5v2364q0 150 79 240.5t220 90.5t220 -91.5t79 -239.5z" />
    <glyph glyph-name="daggerdbl" unicode="&#x2021;" horiz-adv-x="2306" 
d="M1425 1405v-574h406q171 0 237 -65.5t66 -208.5q0 -125 -86 -197.5t-217 -72.5h-406v-545q0 -130 -73 -216.5t-201 -86.5q-126 0 -200 87.5t-74 215.5v545h-406q-131 0 -217 72t-86 198q0 128 86.5 201t216.5 73h406v574h-406q-134 0 -218.5 72t-84.5 202q0 125 87.5 198
t215.5 73h406v544q0 130 73.5 217t200.5 87q129 0 201.5 -85t72.5 -219v-544h406q129 0 216 -72t87 -199t-85 -200.5t-218 -73.5h-406z" />
    <glyph glyph-name="periodcentered" unicode="&#xb7;" horiz-adv-x="1217" 
d="M274 1016q0 135 99.5 233.5t236.5 98.5q88 0 164.5 -45t122 -122.5t45.5 -164.5q0 -137 -97.5 -236.5t-234.5 -99.5q-138 0 -237 99t-99 237z" />
    <glyph glyph-name="quotesinglbase" unicode="&#x201a;" horiz-adv-x="1217" 
d="M160 -176l368 639q82 135 234 135q113 0 204 -80.5t91 -193.5q0 -66 -33 -140l-360 -639q-79 -143 -242 -143q-121 0 -210 86.5t-89 208.5q6 66 37 127z" />
    <glyph glyph-name="quotedblbase" unicode="&#x201e;" horiz-adv-x="2003" 
d="M156 -168l331 578q32 56 88 89t121 33q101 0 184 -73t83 -172q0 -71 -33 -127l-320 -578q-73 -127 -221 -127q-107 0 -186.5 78.5t-79.5 187.5q0 59 33 111zM1028 -168l332 578q75 122 213 122q102 0 182 -73t80 -172q0 -70 -29 -127l-323 -578q-73 -127 -217 -127
q-111 0 -191 78t-80 188q5 54 33 111z" />
    <glyph glyph-name="perthousand" unicode="&#x2030;" horiz-adv-x="5083" 
d="M127 1909q0 346 131 581q76 137 209.5 226.5t282.5 89.5q220 0 366.5 -134.5t213.5 -338.5t67 -420q0 -218 -67 -421.5t-214 -337.5t-366 -134q-148 0 -281.5 88t-210.5 223q-131 235 -131 578zM762 1405q149 0 189 153t40 359t-40 359t-189 153q-148 0 -189 -156.5
t-41 -367.5q0 -199 42 -349.5t188 -150.5zM2011 872q0 347 131 582q79 139 211 225t281 86q219 0 366 -134t214 -337.5t67 -421.5q0 -215 -67 -418t-214 -336.5t-366 -133.5q-148 0 -281 86.5t-211 224.5q-131 235 -131 577zM2646 365q149 0 189 153t40 359q0 207 -40 361.5
t-189 154.5t-189 -157t-40 -368q0 -503 229 -503zM1053 254l954 2404q66 140 164 140q83 0 149 -44.5t72 -119.5q0 -73 -20 -119l-975 -2445q-56 -144 -160 -144q-80 0 -147.5 46.5t-73.5 121.5q0 67 37 160zM3453 872q0 347 131 582q76 137 209.5 224t282.5 87
q219 0 366 -134t214 -337.5t67 -421.5q0 -215 -67 -418t-214 -336.5t-366 -133.5q-148 0 -282 87.5t-210 223.5q-131 235 -131 577zM4088 365q149 0 189 153t40 359q0 207 -40 361.5t-189 154.5q-148 0 -189 -157t-41 -368q0 -503 230 -503z" />
    <glyph glyph-name="Acircumflex" unicode="&#xc2;" horiz-adv-x="2609" 
d="M1839 520h-1048l-66 -237q-86 -324 -279 -324q-132 0 -235 64.5t-121 185.5q0 128 25 197l737 2027q57 158 179.5 255t283.5 97t283.5 -96t179.5 -256l737 -2027q25 -72 25 -197q-14 -120 -117.5 -185t-239.5 -65q-89 0 -159 78t-99 180zM1651 1081l-332 1041l-332 -1041
h664zM1314 3158l-462 -176q-58 -16 -86 -16q-82 0 -141.5 66.5t-59.5 150.5q0 59 39.5 110.5t95.5 69.5l533 197q48 16 77 16q13 0 40 -7.5t34 -8.5l520 -177q160 -57 160 -196q0 -87 -64 -150t-149 -63q-17 0 -49 8z" />
    <glyph glyph-name="Ecircumflex" unicode="&#xca;" horiz-adv-x="2011" 
d="M881 2171v-520h585q132 0 222 -75t90 -208q0 -127 -91 -202.5t-221 -75.5h-585v-529h647q136 0 223.5 -74t87.5 -208q0 -128 -89 -203.5t-222 -75.5h-893q-181 0 -281 100t-100 281v1970q0 178 100.5 279.5t280.5 101.5h893q136 0 223.5 -75t87.5 -208q0 -127 -89 -202.5
t-222 -75.5h-647zM1007 3158l-462 -176q-58 -16 -86 -16q-82 0 -141.5 66.5t-59.5 150.5q0 59 39.5 110.5t95.5 69.5l533 197q48 16 77 16q13 0 40 -7.5t34 -8.5l520 -177q160 -57 160 -196q0 -87 -64 -150t-149 -63q-17 0 -49 8z" />
    <glyph glyph-name="Aacute" unicode="&#xc1;" horiz-adv-x="2609" 
d="M1839 520h-1048l-66 -237q-86 -324 -279 -324q-132 0 -235 64.5t-121 185.5q0 128 25 197l737 2027q57 158 179.5 255t283.5 97t283.5 -96t179.5 -256l737 -2027q25 -72 25 -197q-14 -120 -117.5 -185t-239.5 -65q-89 0 -159 78t-99 180zM1651 1081l-332 1041l-332 -1041
h664zM930 3359l643 188q24 8 69 8q82 0 142.5 -51.5t66.5 -132.5q0 -170 -151 -217l-635 -193q-58 -16 -86 -16q-88 0 -150.5 61.5t-62.5 147.5q0 74 46 129t118 76z" />
    <glyph glyph-name="Edieresis" unicode="&#xcb;" horiz-adv-x="2011" 
d="M881 2171v-520h585q132 0 222 -75t90 -208q0 -127 -91 -202.5t-221 -75.5h-585v-529h647q136 0 223.5 -74t87.5 -208q0 -128 -89 -203.5t-222 -75.5h-893q-181 0 -281 100t-100 281v1970q0 178 100.5 279.5t280.5 101.5h893q136 0 223.5 -75t87.5 -208q0 -127 -89 -202.5
t-222 -75.5h-647zM266 3244q0 123 88 213t211 90q81 0 150.5 -41.5t111 -111t41.5 -150.5q0 -123 -90 -211t-213 -88t-211 88t-88 211zM1155 3244q0 123 88 213t211 90t211 -90t88 -213t-88 -211t-211 -88t-211 88t-88 211z" />
    <glyph glyph-name="Egrave" unicode="&#xc8;" horiz-adv-x="2011" 
d="M881 2171v-520h585q132 0 222 -75t90 -208q0 -127 -91 -202.5t-221 -75.5h-585v-529h647q136 0 223.5 -74t87.5 -208q0 -128 -89 -203.5t-222 -75.5h-893q-181 0 -281 100t-100 281v1970q0 178 100.5 279.5t280.5 101.5h893q136 0 223.5 -75t87.5 -208q0 -127 -89 -202.5
t-222 -75.5h-647zM1245 2961l-634 193q-70 22 -111 80.5t-41 136.5t62.5 131t146.5 53q45 0 69 -8l644 -188q73 -22 118 -76.5t45 -128.5q0 -88 -62.5 -148.5t-150.5 -60.5q-28 0 -86 16z" />
    <glyph glyph-name="Iacute" unicode="&#xcd;" horiz-adv-x="1130" 
d="M254 307v2118q0 147 84 247.5t231 100.5q146 0 229 -100.5t83 -247.5v-2118q0 -148 -82.5 -248t-229.5 -100q-145 0 -230 100.5t-85 247.5zM185 3359l643 188q24 8 69 8q82 0 142.5 -51.5t66.5 -132.5q0 -170 -151 -217l-635 -193q-58 -16 -86 -16q-88 0 -150.5 61.5
t-62.5 147.5q0 74 46 129t118 76z" />
    <glyph glyph-name="Icircumflex" unicode="&#xce;" horiz-adv-x="1130" 
d="M254 307v2118q0 147 84 247.5t231 100.5q146 0 229 -100.5t83 -247.5v-2118q0 -148 -82.5 -248t-229.5 -100q-145 0 -230 100.5t-85 247.5zM569 3158l-462 -176q-58 -16 -86 -16q-82 0 -141.5 66.5t-59.5 150.5q0 59 39.5 110.5t95.5 69.5l533 197q48 16 77 16
q13 0 40 -7.5t34 -8.5l520 -177q160 -57 160 -196q0 -87 -64 -150t-149 -63q-17 0 -49 8z" />
    <glyph glyph-name="Idieresis" unicode="&#xcf;" horiz-adv-x="1130" 
d="M254 307v2118q0 147 84 247.5t231 100.5q146 0 229 -100.5t83 -247.5v-2118q0 -148 -82.5 -248t-229.5 -100q-145 0 -230 100.5t-85 247.5zM-176 3244q0 123 88 213t211 90q81 0 150.5 -41.5t111 -111t41.5 -150.5q0 -123 -90 -211t-213 -88t-211 88t-88 211zM713 3244
q0 123 88 213t211 90t211 -90t88 -213t-88 -211t-211 -88t-211 88t-88 211z" />
    <glyph glyph-name="Igrave" unicode="&#xcc;" horiz-adv-x="1130" 
d="M254 307v2118q0 147 84 247.5t231 100.5q146 0 229 -100.5t83 -247.5v-2118q0 -148 -82.5 -248t-229.5 -100q-145 0 -230 100.5t-85 247.5zM807 2961l-634 193q-70 22 -111 80.5t-41 136.5t62.5 131t146.5 53q45 0 69 -8l644 -188q73 -22 118 -76.5t45 -128.5
q0 -88 -62.5 -148.5t-150.5 -60.5q-28 0 -86 16z" />
    <glyph glyph-name="Oacute" unicode="&#xd3;" horiz-adv-x="2961" 
d="M131 1384q0 316 111.5 597t335.5 481q372 336 901 336q304 0 553.5 -106.5t428.5 -299.5t274 -451t95 -557q0 -332 -110.5 -626t-339.5 -500q-180 -164 -410.5 -246t-486.5 -82q-282 0 -537 102t-442 300q-373 394 -373 1052zM799 1380q0 -222 72.5 -426.5t226.5 -333
t385 -128.5q235 0 387.5 126t222.5 327.5t70 434.5q0 223 -74 420t-229.5 316.5t-384.5 119.5q-132 0 -257.5 -59t-213.5 -158q-205 -232 -205 -639zM1098 3359l643 188q24 8 69 8q82 0 142.5 -51.5t66.5 -132.5q0 -170 -151 -217l-635 -193q-58 -16 -86 -16
q-88 0 -150.5 61.5t-62.5 147.5q0 74 46 129t118 76z" />
    <glyph glyph-name="Ocircumflex" unicode="&#xd4;" horiz-adv-x="2961" 
d="M131 1384q0 316 111.5 597t335.5 481q372 336 901 336q304 0 553.5 -106.5t428.5 -299.5t274 -451t95 -557q0 -332 -110.5 -626t-339.5 -500q-180 -164 -410.5 -246t-486.5 -82q-282 0 -537 102t-442 300q-373 394 -373 1052zM799 1380q0 -222 72.5 -426.5t226.5 -333
t385 -128.5q235 0 387.5 126t222.5 327.5t70 434.5q0 223 -74 420t-229.5 316.5t-384.5 119.5q-132 0 -257.5 -59t-213.5 -158q-205 -232 -205 -639zM1482 3158l-462 -176q-58 -16 -86 -16q-82 0 -141.5 66.5t-59.5 150.5q0 59 39.5 110.5t95.5 69.5l533 197q48 16 77 16
q13 0 40 -7.5t34 -8.5l520 -177q160 -57 160 -196q0 -87 -64 -150t-149 -63q-17 0 -49 8z" />
    <glyph glyph-name="Ograve" unicode="&#xd2;" horiz-adv-x="2961" 
d="M131 1384q0 316 111.5 597t335.5 481q372 336 901 336q304 0 553.5 -106.5t428.5 -299.5t274 -451t95 -557q0 -332 -110.5 -626t-339.5 -500q-180 -164 -410.5 -246t-486.5 -82q-282 0 -537 102t-442 300q-373 394 -373 1052zM799 1380q0 -222 72.5 -426.5t226.5 -333
t385 -128.5q235 0 387.5 126t222.5 327.5t70 434.5q0 223 -74 420t-229.5 316.5t-384.5 119.5q-132 0 -257.5 -59t-213.5 -158q-205 -232 -205 -639zM1720 2961l-634 193q-70 22 -111 80.5t-41 136.5t62.5 131t146.5 53q45 0 69 -8l644 -188q73 -22 118 -76.5t45 -128.5
q0 -88 -62.5 -148.5t-150.5 -60.5q-28 0 -86 16z" />
    <glyph glyph-name="Uacute" unicode="&#xda;" horiz-adv-x="2826" 
d="M2601 2421v-1225q0 -266 -43.5 -453t-177.5 -358q-171 -216 -427 -335.5t-536 -119.5q-238 0 -455 80.5t-382.5 227.5t-260 353t-94.5 445v1385q0 147 84.5 247.5t231.5 100.5q145 0 228 -100.5t83 -247.5v-1295q0 -262 131 -421q75 -90 193 -139.5t237 -49.5
q127 0 247.5 56t194.5 157q119 156 119 467v1225q0 147 84 247.5t228 100.5q145 0 230 -100.5t85 -247.5zM1028 3359l643 188q24 8 69 8q82 0 142.5 -51.5t66.5 -132.5q0 -170 -151 -217l-635 -193q-58 -16 -86 -16q-88 0 -150.5 61.5t-62.5 147.5q0 74 46 129t118 76z" />
    <glyph glyph-name="Ucircumflex" unicode="&#xdb;" horiz-adv-x="2826" 
d="M2601 2421v-1225q0 -266 -43.5 -453t-177.5 -358q-171 -216 -427 -335.5t-536 -119.5q-238 0 -455 80.5t-382.5 227.5t-260 353t-94.5 445v1385q0 147 84.5 247.5t231.5 100.5q145 0 228 -100.5t83 -247.5v-1295q0 -262 131 -421q75 -90 193 -139.5t237 -49.5
q127 0 247.5 56t194.5 157q119 156 119 467v1225q0 147 84 247.5t228 100.5q145 0 230 -100.5t85 -247.5zM1413 3158l-462 -176q-58 -16 -86 -16q-82 0 -141.5 66.5t-59.5 150.5q0 59 39.5 110.5t95.5 69.5l533 197q48 16 77 16q13 0 40 -7.5t34 -8.5l520 -177
q160 -57 160 -196q0 -87 -64 -150t-149 -63q-17 0 -49 8z" />
    <glyph glyph-name="Ugrave" unicode="&#xd9;" horiz-adv-x="2826" 
d="M2601 2421v-1225q0 -266 -43.5 -453t-177.5 -358q-171 -216 -427 -335.5t-536 -119.5q-238 0 -455 80.5t-382.5 227.5t-260 353t-94.5 445v1385q0 147 84.5 247.5t231.5 100.5q145 0 228 -100.5t83 -247.5v-1295q0 -262 131 -421q75 -90 193 -139.5t237 -49.5
q127 0 247.5 56t194.5 157q119 156 119 467v1225q0 147 84 247.5t228 100.5q145 0 230 -100.5t85 -247.5zM1650 2961l-634 193q-70 22 -111 80.5t-41 136.5t62.5 131t146.5 53q45 0 69 -8l644 -188q73 -22 118 -76.5t45 -128.5q0 -88 -62.5 -148.5t-150.5 -60.5
q-28 0 -86 16z" />
    <glyph glyph-name="dotlessi" unicode="&#x131;" horiz-adv-x="1171" 
d="M279 307v1462q0 142 80 237t219 95q140 0 221.5 -95t81.5 -237v-1462q0 -144 -80.5 -240t-222.5 -96q-137 0 -218 97.5t-81 238.5z" />
    <glyph glyph-name="circumflex" unicode="&#x2c6;" 
d="M1085 2396l-462 -176q-58 -16 -86 -16q-82 0 -141.5 66.5t-59.5 150.5q0 59 39.5 110.5t95.5 69.5l533 197q48 16 77 16q13 0 40 -7.5t34 -8.5l520 -177q160 -57 160 -196q0 -87 -64 -150t-149 -63q-17 0 -49 8z" />
    <glyph glyph-name="tilde" unicode="&#x2dc;" 
d="M287 2429q0 176 130 292t312 122q196 0 352 -78l168 -86q74 -41 144 -41q53 0 81.5 24t57.5 74q55 111 164 111q85 0 147 -55.5t62 -137.5q0 -126 -69.5 -225t-182 -154t-232.5 -55q-142 0 -340 98q-199 104 -282 111q-87 0 -127 -70l-45 -73q-46 -70 -144 -70
q-87 0 -141.5 61t-54.5 152z" />
    <glyph glyph-name="macron" unicode="&#xaf;" 
d="M1638 2359h-1015q-96 0 -163 55t-67 150q0 94 66.5 149.5t163.5 55.5h1015q97 0 163.5 -55t66.5 -150q0 -92 -67.5 -148.5t-162.5 -56.5z" />
    <glyph glyph-name="breve" unicode="&#x2d8;" 
d="M1110 2183q-326 0 -545 205q-75 67 -90 135q-8 34 -8 45q0 60 44.5 112t106.5 64q109 0 185 -78q143 -135 307 -135q150 0 270 103q73 58 116.5 84t109.5 26q64 -9 103.5 -69.5t39.5 -155.5q-32 -102 -144 -179t-251 -117t-244 -40z" />
    <glyph glyph-name="dotaccent" unicode="&#x2d9;" 
d="M786 2560q0 123 89 213t210 90q81 0 150.5 -41t111.5 -111t42 -151q0 -123 -90.5 -211t-213.5 -88q-121 0 -210 88t-89 211z" />
    <glyph glyph-name="ring" unicode="&#x2da;" 
d="M713 2630q0 153 111.5 262.5t265.5 109.5q98 0 184.5 -50.5t137 -137t50.5 -184.5q0 -154 -109.5 -265.5t-262.5 -111.5q-100 0 -187 51.5t-138.5 138.5t-51.5 187zM918 2630q0 -70 51 -121t121 -51q69 0 118 51t49 121q0 68 -49 118t-118 50q-70 0 -121 -50t-51 -118z
" />
    <glyph glyph-name="cedilla" unicode="&#xb8;" 
d="M1454 0l-385 -528q-59 -86 -164 -86q-67 0 -126 55t-62 121q0 69 41 123l221 315h475z" />
    <glyph glyph-name="hungarumlaut" unicode="&#x2dd;" 
d="M1130 2810l-405 -569h-311l221 569h495zM1806 2810l-405 -569h-311l217 569h499z" />
    <glyph glyph-name="ogonek" unicode="&#x2db;" 
d="M1098 0h274q-225 -168 -225 -336q0 -76 60.5 -123t140.5 -57q111 0 192 20v-225q-147 -41 -262 -41q-159 0 -290.5 83t-131.5 224q0 249 242 455z" />
    <glyph glyph-name="caron" unicode="&#x2c7;" 
d="M1085 2601l488 176q32 8 49 8q87 0 150 -63t63 -150q0 -139 -160 -196l-520 -172q-47 -21 -74 -21q-32 0 -77 17l-533 196q-59 24 -97 73.5t-38 106.5q0 84 59 150.5t142 66.5q28 0 86 -16z" />
    <glyph glyph-name="Lslash" horiz-adv-x="2105" 
d="M434 393v627q-64 -33 -119 -33q-90 0 -151 94q-37 47 -37 111q6 117 160 217l147 102v914q3 149 86.5 248.5t229.5 99.5q145 0 228 -100.5t83 -247.5v-475l53 37q123 86 201 86q90 0 147 -91q37 -53 37 -106q0 -125 -172 -246l-266 -184v-885h647q137 -3 224 -76t87 -206
q0 -128 -89 -203.5t-222 -75.5h-881q-186 3 -289.5 105t-103.5 288z" />
    <glyph glyph-name="lslash" horiz-adv-x="1171" 
d="M864 2671v-750q80 49 152 49q81 0 143 -86q37 -55 37 -110q0 -123 -172 -242l-160 -115v-1110q-3 -146 -82.5 -241t-220.5 -95q-137 0 -218 97.5t-81 238.5v713q-58 -25 -98 -25q-81 0 -139 86q-37 47 -37 107q0 104 159 221q29 21 57.5 41.5t57.5 40.5v1180
q3 142 82 236.5t217 94.5q139 0 221 -94.5t82 -236.5z" />
    <glyph glyph-name="Eth" horiz-adv-x="3002" 
d="M418 389v758h-12q-123 3 -201 70.5t-78 187.5q0 119 78.5 186.5t200.5 67.5h12v692q3 179 102.5 280t278.5 101h590q532 0 872 -250q249 -182 376.5 -484t127.5 -634q0 -388 -153 -699t-445 -488t-688 -177l-688 8q-177 6 -275 105t-98 276zM1044 2183v-524h144
q123 0 205 -66.5t82 -187.5q0 -118 -83.5 -188t-203.5 -70h-144v-602h312q350 0 524 184q217 228 217 635q0 434 -250 651q-187 168 -561 168h-242z" />
    <glyph glyph-name="Scaron" horiz-adv-x="2310" 
d="M188 1925q0 263 138 462t367 305t487 106q155 0 330.5 -33.5t305.5 -119.5t130 -232q0 -128 -81 -218t-206 -90q-54 0 -94 13l-115 41q-149 53 -283 53q-117 0 -214 -59t-97 -166q0 -168 254 -234l168 -45q396 -107 628 -289.5t232 -529.5q0 -424 -233 -668
q-139 -151 -348.5 -221t-438.5 -70q-418 0 -717 144q-105 50 -169 136t-64 196q0 108 81 195t189 87q92 0 160 -29l217 -81q158 -62 307 -62q134 0 239 75.5t105 207.5q0 134 -102 200q-84 53 -164 79.5t-274 84.5q-251 73 -403 153t-243.5 226.5t-91.5 382.5zM1151 3383
l488 176q32 8 49 8q87 0 150 -63t63 -150q0 -139 -160 -196l-520 -172q-47 -21 -74 -21q-32 0 -77 17l-533 196q-59 24 -97 73.5t-38 106.5q0 84 59 150.5t142 66.5q28 0 86 -16z" />
    <glyph glyph-name="Thorn" horiz-adv-x="2384" 
d="M852 545v-238q0 -90 -37 -170t-107.5 -129t-166.5 -49q-145 0 -230.5 100.5t-85.5 247.5v2118q3 149 86.5 248.5t229.5 99.5q311 0 311 -393h389q462 0 696 -230q132 -125 209.5 -303t77.5 -364q0 -398 -209 -647q-239 -291 -692 -291h-471zM1200 1831h-348v-741h315
q202 0 312 110q102 103 102 279q-9 162 -114 257t-267 95z" />
    <glyph glyph-name="Yacute" horiz-adv-x="2482" 
d="M1565 1290v-983q0 -148 -83.5 -248t-232.5 -100q-143 0 -227 100.5t-84 247.5v983l-659 901q-17 25 -50.5 71t-51 85.5t-17.5 81.5q0 131 82 235.5t200 104.5q195 0 308 -164l499 -721l529 729q109 160 311 160q120 0 199 -99t79 -233q0 -93 -122 -254zM885 3359l643 188
q24 8 69 8q82 0 142.5 -51.5t66.5 -132.5q0 -170 -151 -217l-635 -193q-58 -16 -86 -16q-88 0 -150.5 61.5t-62.5 147.5q0 74 46 129t118 76z" />
    <glyph glyph-name="Zcaron" horiz-adv-x="2261" 
d="M877 561h1019q133 0 222.5 -74.5t89.5 -207.5q0 -128 -91 -203.5t-221 -75.5h-1429q-107 0 -176.5 23t-138.5 92q-82 81 -82 217q0 89 82 205l1224 1634h-946q-132 0 -221.5 74.5t-89.5 203.5q0 130 89 206.5t222 76.5h1360q171 0 266 -86q103 -88 103 -209
q0 -135 -91 -266zM1134 3383l488 176q32 8 49 8q87 0 150 -63t63 -150q0 -139 -160 -196l-520 -172q-47 -21 -74 -21q-32 0 -77 17l-533 196q-59 24 -97 73.5t-38 106.5q0 84 59 150.5t142 66.5q28 0 86 -16z" />
    <glyph glyph-name="brokenbar" 
d="M758 2728h659v-1450h-659v1450zM758 627h659v-1311h-659v1311z" />
    <glyph glyph-name="eth" horiz-adv-x="2421" 
d="M1241 1724q-146 205 -254 332l-213 -147q-142 -94 -201 -94q-73 0 -122 77q-37 49 -37 95q0 51 46 95.5t138 104.5l164 115q-94 107 -94 238q0 108 99 183t212 75q141 -11 270 -156q1 0 67 46t109 77q156 106 209 106q62 0 115 -78q37 -53 37 -98q0 -87 -180 -213
l-136 -94q77 -94 164 -209q561 -722 561 -1286q0 -285 -132.5 -505t-363 -339t-511.5 -119q-282 0 -506.5 128.5t-348.5 355.5t-124 508q0 225 111 419t302.5 307t413.5 113q90 0 205 -37zM852 897q0 -144 104 -248t248 -104q143 0 245.5 104.5t102.5 247.5q0 140 -103 244
t-245 104q-143 0 -247.5 -103.5t-104.5 -244.5z" />
    <glyph glyph-name="minus" 
d="M90 1630h1978v-307h-1978v307z" />
    <glyph glyph-name="multiply" 
d="M479 2298l602 -606l611 614l225 -225l-614 -611l610 -606l-217 -217l-606 615l-611 -619l-225 225l614 611l-606 602z" />
    <glyph glyph-name="onehalf" horiz-adv-x="3842" 
d="M709 2380h-107q-82 0 -143.5 48t-61.5 128q0 82 61 129t144 47h303q101 0 163 -56.5t62 -156.5v-1233q0 -94 -59 -155.5t-149 -61.5q-94 0 -153.5 62t-59.5 155v1094zM1167 254l955 2404q59 128 164 140q92 0 153.5 -45.5t67.5 -118.5q0 -59 -21 -119l-975 -2445
q-47 -125 -159 -144q-89 0 -151.5 47t-70.5 121q0 62 37 160zM3011 352h376q86 0 147.5 -46.5t61.5 -129.5q0 -176 -245 -176h-742q-122 0 -184 53q-49 49 -49 131q8 70 110 172q7 7 115 123t174.5 187.5t103.5 111.5q23 26 76 85t87 103.5t58 95.5t25 97q0 66 -41 111
t-106 45q-131 0 -180 -152q-22 -77 -40.5 -118t-56.5 -70t-104 -29q-83 0 -138 56t-55 141q0 226 181 381t409 155q223 0 394 -139.5t171 -355.5q0 -234 -229 -500q-140 -158 -319 -332z" />
    <glyph glyph-name="onequarter" horiz-adv-x="3842" 
d="M709 2380h-107q-82 0 -143.5 48t-61.5 128q0 82 61 129t144 47h303q101 0 163 -56.5t62 -156.5v-1233q0 -94 -59 -155.5t-149 -61.5q-94 0 -153.5 62t-59.5 155v1094zM1249 254l955 2404q59 128 163 140q93 0 154.5 -45.5t67.5 -118.5q0 -54 -21 -119l-975 -2445
q-47 -125 -159 -144q-89 0 -151.5 47t-70.5 121q0 62 37 160zM2990 348h-487q-92 0 -159 42t-67 126q0 30 25 82l508 881q46 81 121.5 132.5t165.5 51.5q119 0 202.5 -82.5t83.5 -204.5v-680h25q77 0 133.5 -42.5t62.5 -116.5q0 -90 -64.5 -138t-152.5 -51l-4 -168
q0 -87 -56 -146t-140 -59q-88 0 -142.5 59.5t-54.5 145.5v168zM2990 696v443l-250 -443h250z" />
    <glyph glyph-name="onesuperior" horiz-adv-x="1716" 
d="M709 2380h-107q-82 0 -143.5 48t-61.5 128q0 82 61 129t144 47h303q101 0 163 -56t62 -153v-1237q0 -94 -59 -155.5t-149 -61.5q-94 0 -153.5 62t-59.5 155v1094z" />
    <glyph glyph-name="scaron" horiz-adv-x="1905" 
d="M229 1446q0 257 177 434q225 238 577 238q317 0 533 -148q172 -122 172 -262q0 -100 -72.5 -183t-177.5 -83q-57 5 -238 82q-149 61 -246 61q-138 -9 -143 -98q0 -56 54.5 -98t134.5 -73.5t126 -49.5q330 -125 459 -258q148 -163 148 -361q0 -145 -58.5 -279t-167.5 -229
q-208 -180 -553 -180q-147 0 -330.5 45.5t-319.5 145t-136 251.5q0 94 75 178.5t171 84.5q38 0 80.5 -10t76 -23.5t78 -34.5t80.5 -39q146 -65 238 -65q64 0 122 35.5t58 95.5q0 74 -57 106.5t-177 77.5l-163 61q-250 97 -385.5 225.5t-135.5 352.5zM950 2601l488 176
q32 8 49 8q87 0 150 -63t63 -150q0 -139 -160 -196l-520 -172q-47 -21 -74 -21q-32 0 -77 17l-533 196q-59 24 -97 73.5t-38 106.5q0 84 59 150.5t142 66.5q28 0 86 -16z" />
    <glyph glyph-name="thorn" horiz-adv-x="2376" 
d="M188 -512v3183q0 90 35 166t104 120.5t160 44.5q141 0 222.5 -95t81.5 -236v-779q207 222 475 222q360 0 602 -230q157 -152 242 -364t85 -439q0 -290 -108 -547t-320.5 -416t-504.5 -159q-242 0 -471 176v-647q-3 -145 -83 -240.5t-221 -95.5q-137 0 -218 97.5
t-81 238.5zM770 1036q0 -130 49.5 -250.5t146 -195t234.5 -74.5q121 0 211 78.5t136 199t46 242.5q0 121 -46 242.5t-136 199.5t-211 78q-138 0 -234.5 -74.5t-146 -195t-49.5 -250.5z" />
    <glyph glyph-name="threequarters" horiz-adv-x="3842" 
d="M1208 1999q271 -149 271 -406q0 -162 -88 -285t-230 -189t-301 -66q-211 0 -368 94q-106 64 -180 159t-74 197q0 75 59.5 132t132.5 57q108 0 164 -86l45 -70q71 -115 197 -115q88 0 150.5 53t62.5 140q0 152 -201 168q-213 16 -213 176q0 86 48.5 118.5t152.5 61.5
q151 43 151 156q-3 53 -45 81.5t-98 28.5q-93 0 -193 -98q-94 -102 -180 -102q-72 0 -126 52t-54 124q0 118 92 208t224.5 137.5t248.5 47.5q127 0 249.5 -52t200.5 -150t78 -228q0 -219 -176 -344zM1294 254l959 2404q51 128 164 140q89 0 150.5 -45.5t70.5 -118.5
q0 -59 -21 -119l-975 -2445q-55 -127 -163 -144q-86 0 -148.5 47t-73.5 121q0 62 37 160zM2953 348h-487q-90 0 -155.5 42t-65.5 126q0 44 24 82l508 881q46 80 121 132t162 52q79 0 145 -37t103.5 -103t37.5 -147v-680h29q76 0 134.5 -43.5t58.5 -115.5q0 -89 -66 -137.5
t-156 -51.5v-168q0 -87 -54 -146t-142 -59q-85 0 -141 60t-56 145v168zM2953 696v443l-246 -443h246z" />
    <glyph glyph-name="threesuperior" horiz-adv-x="1716" 
d="M1208 1999q271 -149 271 -406q0 -162 -88 -285t-230 -189t-301 -66q-211 0 -368 94q-106 64 -180 159t-74 197q0 75 59.5 132t132.5 57q111 0 164 -82l45 -74q71 -115 197 -115q88 0 150.5 53t62.5 140q0 152 -201 168q-213 16 -213 176q0 86 48.5 118.5t152.5 61.5
q151 43 151 156q-3 53 -45 81.5t-98 28.5q-93 0 -193 -98q-94 -102 -180 -102q-72 0 -126 52t-54 124q0 120 91.5 209.5t225.5 136.5t248 47q126 0 249 -51t201 -148.5t78 -230.5q0 -219 -176 -344z" />
    <glyph glyph-name="twosuperior" horiz-adv-x="1716" 
d="M889 1446h377q85 0 147 -47.5t62 -128.5q0 -176 -246 -176h-742q-122 0 -184 53q-49 49 -49 131q8 71 111 172q97 103 203 217.5t190 204.5q42 47 82.5 91.5t78.5 94.5t62 98.5t27 96.5q0 65 -43 110t-105 45q-136 0 -180 -151q-36 -113 -74 -165t-131 -52q-82 0 -137 56
t-55 140q0 226 181 381.5t408 155.5q142 0 273 -62.5t212 -176.5t81 -257q0 -232 -230 -499q-151 -177 -319 -332z" />
    <glyph glyph-name="yacute" horiz-adv-x="2159" 
d="M1077 934l353 885q52 132 114.5 209t163.5 77q80 0 162 -32.5t134 -93.5t52 -140q0 -105 -33 -188l-970 -2310q-86 -213 -254 -213q-124 0 -225.5 72.5t-110.5 189.5q0 84 37 184l262 614l-619 1467q-37 94 -37 188q0 117 107.5 189.5t237.5 72.5q103 0 163 -76t111 -206
zM705 2683l643 188q24 8 69 8q82 0 142.5 -51.5t66.5 -132.5q0 -170 -151 -217l-635 -193q-58 -16 -86 -16q-88 0 -150.5 61.5t-62.5 147.5q0 74 46 129t118 76z" />
    <glyph glyph-name="zcaron" horiz-adv-x="1962" 
d="M946 545h651q130 0 217 -72t87 -199q0 -126 -88 -200t-216 -74h-1220q-172 0 -238 57q-73 60 -73 148q0 81 69 180l840 1147h-602q-129 0 -216 72.5t-87 201.5q0 125 87.5 198t215.5 73h1220q94 0 170 -57.5t76 -147.5q0 -106 -82 -221zM983 2601l488 176q32 8 49 8
q87 0 150 -63t63 -150q0 -139 -160 -196l-520 -172q-47 -21 -74 -21q-32 0 -77 17l-533 196q-59 24 -97 73.5t-38 106.5q0 84 59 150.5t142 66.5q28 0 86 -16z" />
    </font>
</defs>
</svg>
